<?xml version="1.0" standalone="no"?>
<!DOCTYPE svg PUBLIC "-//W3C//DTD SVG 1.1//EN" "http://www.w3.org/Graphics/SVG/1.1/DTD/svg11.dtd" >
<svg xmlns="http://www.w3.org/2000/svg">
<metadata>Generated by IcoMoon</metadata>
<defs>
<font id="motors-icons" horiz-adv-x="1024">
<font-face units-per-em="1024" ascent="960" descent="-64" />
<missing-glyph horiz-adv-x="1024" />
<glyph unicode="&#x20;" horiz-adv-x="512" d="" />
<glyph unicode="&#xe800;" glyph-name="speedometr2" d="M529.746 325.038c25.487 0 46.193 20.746 46.193 46.182 0 25.385-20.695 45.978-46.193 45.978l-209.285 153.498 163.072-202.445c1.536-24.115 21.678-43.213 46.213-43.213zM511.949 919.716c-282.726 0-511.908-228.506-511.908-510.474 0-105.052 31.857-202.711 86.497-283.832h63.898l1.382-1.567 1.812 1.567h2.447c-0.369 0.41-0.614 0.942-0.963 1.29l88.719 77.271-42.875 48.886-82.729-72.11c-39.301 67.185-62.198 145.111-62.198 228.485 0 3.963 0.451 7.608 0.553 11.571l101.765 0.092v64.942h-95.355c13.476 79.114 46.961 151.316 95.754 210.883l71.475-71.188 45.998 45.885-72.428 72.212c71.117 65.208 162.734 108.39 264.325 118.098l0.051-116.675 65.137 0.051v117.719c113.51-5.192 216.105-51.476 293.079-124.744l-74.107-73.994 46.070-45.896 71.916 71.69c45.967-58.225 77.681-127.846 90.665-204.073l-99.021-0.123v-64.87h105.462c0.102-3.963 0.645-7.608 0.645-11.622 0-83.026-22.641-160.532-61.676-227.451l-77.722 77.394-45.916-45.875 86.405-86.252c-0.297-0.492-0.799-1.075-1.188-1.587h69.652c54.477 81.121 86.385 178.729 86.385 283.781 0.082 282.010-229.161 510.515-512.010 510.515zM279.276-22.456h461.322v119.777h-461.322v-119.777z" />
<glyph unicode="&#xe801;" glyph-name="shop_bag" horiz-adv-x="931" d="M864.275 674.89c-1.555 16.505-15.9 29.137-33.112 29.137h-166.232v63.991c0 105.9-89.479 192.019-199.485 192.019-110.015 0-199.485-86.118-199.485-192.019v-63.991h-166.232c-17.222 0-31.558-12.623-33.122-29.137l-66.495-703.991c-0.829-8.937 2.253-17.799 8.583-24.427 6.293-6.656 15.183-10.445 24.529-10.445h864.414c9.356 0 18.237 3.789 24.548 10.445 6.237 6.628 9.421 15.49 8.574 24.427l-66.486 703.991zM332.456 768.019c0 70.609 59.671 128.009 132.99 128.009s132.99-57.4 132.99-128.009v-63.991h-265.979v63.991zM69.679 0.037l60.407 640h135.875v-72.862c-19.81-11.096-33.243-31.53-33.243-55.156 0-35.309 29.789-63.991 66.495-63.991s66.495 28.681 66.495 63.991c0 23.626-13.433 44.051-33.252 55.156v72.862h265.979v-72.862c-19.81-11.096-33.243-31.483-33.243-55.156 0-35.309 29.798-63.991 66.495-63.991 36.678 0 66.495 28.681 66.495 63.991 0 23.626-13.442 44.051-33.243 55.156v72.862h135.875l60.416-640h-791.552z" />
<glyph unicode="&#xe802;" glyph-name="chat2" d="M975.78 920.75c-13.24 12.984-29.655 19.958-48.466 19.958h-633.088c-38.789 0-70.154-29.655-70.154-68.393v-133.356h64.451v133.356c0 3.994 1.7 5.714 5.704 5.714h633.078c3.994 0 5.704-1.72 5.704-5.714v-455.363c0-3.994-1.71-5.704-5.704-5.704h-86.129v-63.263h86.129c18.821 0 35.226 6.963 48.466 19.948 13.558 13.24 20.541 29.635 20.541 49.009v455.373c0.010 19.384-6.973 35.185-20.531 48.435zM726.538 672.276h-633.068c-19.405 0-35.942-6.84-49.060-20.521s-19.958-30.208-19.958-49.582v-454.799c0-18.821 6.697-35.471 19.958-48.998 12.984-13.261 29.655-19.937 49.060-19.937h286.3l214.456-119.122v119.122h132.311c19.405 0 36.076 6.676 49.050 19.937 13.271 13.527 19.968 30.177 19.968 48.998v454.81c0 19.384-6.861 35.901-19.968 49.592-13.107 13.66-29.645 20.5-49.050 20.5zM732.252 147.384c0-3.983-1.71-5.683-5.714-5.683h-195.062v-75.254l-120.33 67.82-14.264 7.434h-303.411c-4.004 0-5.714 1.7-5.714 5.683v454.799c0 5.14 1.71 7.414 5.714 7.414h633.068c4.004 0 5.714-2.284 5.714-7.414v-454.799zM605.071 336.609h-227.574c-17.684 0-31.949-14.264-31.949-31.928s14.264-31.345 31.949-31.345h227.574c17.674 0 31.365 13.67 31.365 31.345s-13.701 31.928-31.365 31.928zM605.071 476.242h-390.113c-17.674 0-31.365-13.701-31.365-31.365s13.691-31.345 31.365-31.345h390.113c17.674 0 31.365 13.681 31.365 31.345s-13.701 31.365-31.365 31.365z" />
<glyph unicode="&#xe803;" glyph-name="car1" d="M1017.999 585.626c-5.007 6.287-12.493 9.964-20.337 9.964h-99.697c-24.658 66.898-56.678 132.485-93.112 157.225-126.054 85.504-460.39 85.504-586.445 0-36.465-24.771-68.393-90.358-93.133-157.225h-99.707c-7.926 0-15.38-3.666-20.337-9.964-4.987-6.308-6.984-14.592-5.356-22.569l14.776-73.728c2.519-12.585 13.271-21.555 25.672-21.555h29.542c-28.518-33.915-42.342-76.605-42.516-119.327-0.195-52.787 19.241-100.495 54.794-134.226 0.389-0.328 0.788-0.635 1.147-0.952v-103.25c0-22.354 17.633-40.571 39.352-40.571h91.965c21.729 0 39.352 18.217 39.352 40.571v41.513h515.267v-41.513c0-22.354 17.592-40.571 39.352-40.571h91.945c21.699 0 39.363 18.217 39.363 40.571v101.233c37.693 35.604 55.736 84.572 55.951 133.509 0.154 44.165-14.295 88.463-44.493 123.054h31.498c12.462 0 23.224 8.98 25.682 21.545l14.797 73.759c1.577 7.926-0.369 16.179-5.325 22.508zM261.612 685.036c100.475 68.157 399.534 68.157 499.927 0 19.517-13.199 44.616-66.54 67.625-131.871h-635.126c22.948 65.311 48.056 118.641 67.574 131.871zM221.338 258.437c-42.732 0-77.414 35.727-77.414 79.79 0 44.093 34.683 79.811 77.414 79.811 42.793 0 77.414-35.717 77.414-79.811 0-44.052-34.621-79.79-77.414-79.79zM802.877 258.437c-42.732 0-77.414 35.727-77.414 79.79 0 44.093 34.683 79.811 77.414 79.811 42.793 0 77.425-35.717 77.425-79.811 0-44.052-34.683-79.79-77.425-79.79z" />
<glyph unicode="&#xe804;" glyph-name="car_search" horiz-adv-x="1403" d="M1356.379 761.007c-4.924 0-9.945-0.715-14.967-2.076l-56.839-15.584-59.041 143.122c-16.721 40.539-66.153 73.532-110.185 73.532h-552.469c-44.032 0-93.465-32.992-110.199-73.532l-58.943-142.911-56.124 15.388c-5.022 1.389-10.058 2.076-14.967 2.076-26.862 0-46.361-20.438-46.361-48.591v-33.357c0-1.459 0.112-2.876 0.224-4.306-12.989-9.651-25.376-20.27-37.032-31.87-62.871-62.576-97.49-145.773-97.49-234.258 0-71.736 22.766-139.993 64.877-196.608l-192.274-191.39c-19.456-19.358-19.456-50.751 0-70.109 9.721-9.679 22.472-14.532 35.209-14.532s25.488 4.853 35.223 14.532l192.288 191.376c56.881-41.914 125.447-64.582 197.52-64.582 88.906 0 172.495 34.465 235.352 97.042 20.284 20.171 37.579 42.545 51.761 66.504h413.514v-71.021c0-32.852 26.848-59.574 59.855-59.574h78.175c33.020 0 59.869 26.722 59.869 59.574v284.363c0 40.708-12.625 104.504-28.167 142.182l-9.539 23.089h7.224c33.006 0 59.855 26.722 59.855 59.588v33.357c0.014 28.139-19.498 48.577-46.347 48.577zM639.733 244.491c-44.046-43.85-102.61-68.005-164.92-68.005-62.282 0-120.86 24.155-164.906 68.005-44.046 43.836-68.313 102.119-68.313 164.135s24.253 120.299 68.313 164.149c44.046 43.836 102.61 67.991 164.906 67.991s120.874-24.155 164.92-67.991c44.046-43.85 68.313-102.133 68.313-164.149 0-62.001-24.253-120.285-68.313-164.135zM740.843 607.758c-9.314 12.302-19.526 24.057-30.664 35.139-62.871 62.576-146.446 97.042-235.352 97.042-0.617 0-1.22-0.042-1.852-0.056l52.981 128.463c10.002 24.253 39.74 44.102 66.083 44.102h494.143c26.343 0 56.082-19.835 66.083-44.102l89.284-216.499c10.016-24.253-3.353-44.102-29.696-44.102h-471.012zM1258.131 378.017c0-13.116-10.773-23.833-23.945-23.833h-169.605c-13.172 0-23.959 10.731-23.959 23.833v81.022c0 13.116 10.787 23.833 23.959 23.833h169.619c13.172 0 23.945-10.731 23.945-23.833v-81.022z" />
<glyph unicode="&#xe805;" glyph-name="label" d="M264.223 771.768c-39.834 0-72.284-32.43-72.284-72.223 0-39.875 32.44-72.305 72.284-72.305s72.253 32.43 72.253 72.305c-0.010 39.803-32.43 72.223-72.253 72.223zM264.223 670.628c-15.964 0-28.918 12.964-28.918 28.918 0 15.903 12.943 28.918 28.918 28.918 15.913 0 28.908-13.015 28.908-28.918 0-15.954-12.995-28.918-28.908-28.918zM660.142 345.201c4.219-4.188 9.759-6.318 15.309-6.318 5.581 0 11.090 2.13 15.329 6.318 8.489 8.53 8.489 22.211 0 30.669l-211.866 211.907c-8.458 8.448-22.19 8.448-30.638 0-8.489-8.52-8.489-22.2 0-30.659l211.866-211.917zM1011.261 409.467l-537.989 538.020c-9.298 9.277-22.313 13.906-35.267 12.462l-356.884-38.042c-20.111-2.13-36.076-17.971-38.451-38.052l-42.527-361.349c-1.526-13.148 3.052-26.337 12.431-35.748l537.989-538.020c8.489-8.499 19.558-12.698 30.659-12.698 11.080 0 22.2 4.198 30.638 12.698l399.401 399.401c8.131 8.141 12.698 19.159 12.698 30.679 0 11.448-4.567 22.518-12.698 30.648zM581.222 40.684l-492.483 492.524 36.014 306.145 301.865 32.164 492.677-492.698-338.074-338.135zM392.192 501.053c-8.458 8.438-22.159 8.438-30.638 0-8.468-8.458-8.479-22.221 0-30.669l211.886-211.855c4.219-4.25 9.759-6.38 15.319-6.38s11.1 2.13 15.319 6.38c8.479 8.458 8.479 22.159 0 30.597l-211.886 211.927z" />
<glyph unicode="&#xe806;" glyph-name="speedometr" d="M511.98 943.104c-272.998 0-495.073-222.095-495.073-495.114 0-272.978 222.075-495.084 495.073-495.084 272.978 0 495.114 222.095 495.114 495.084-0.010 273.009-222.136 495.114-495.114 495.114zM511.98 20.337c-235.807 0-427.663 191.836-427.663 427.653 0 235.827 191.857 427.684 427.663 427.684 235.827 0 427.684-191.846 427.684-427.684 0-235.807-191.857-427.653-427.684-427.653zM511.98 732.518c-156.867 0-284.498-127.642-284.498-284.518 0-156.867 127.621-284.498 284.498-284.498 26.163 0 47.34 21.207 47.34 47.35s-21.166 47.35-47.34 47.35c-104.653 0-189.798 85.146-189.798 189.798 0 104.673 85.135 189.819 189.798 189.819s189.819-85.146 189.819-189.819c0-26.153 21.207-47.35 47.36-47.35 26.163 0 47.34 21.197 47.34 47.35 0 156.877-127.621 284.518-284.518 284.518zM580.864 445.030c0.041 1.024 0.287 1.956 0.287 2.98 0 38.175-30.945 69.171-69.171 69.171-38.205 0-69.14-30.996-69.14-69.171 0-38.205 30.935-69.171 69.14-69.171 1.26 0 2.396 0.307 3.656 0.369l198.81-166.543c9.165-7.721 22.876-7.916 32.266 0.164 10.486 8.96 11.715 24.719 2.755 35.205l-168.602 196.997z" />
<glyph unicode="&#xe807;" glyph-name="chat1" horiz-adv-x="1347" d="M686.565 611.759h-300.059c-16.559 0-30.019-13.42-30.019-30.060 0-16.573 13.46-30.006 30.019-30.006h300.072c16.573 0 30.019 13.406 30.019 30.006-0.013 16.64-13.447 30.060-30.033 30.060zM686.565 465.92h-300.059c-16.559 0-30.019-13.487-30.019-30.073s13.46-29.992 30.019-29.992h300.072c16.573 0 30.019 13.393 30.019 29.992s-13.447 30.073-30.033 30.073zM1347.153 434.499c0 200.96-186.166 366.754-423.707 386.075-97.603 85.625-235.291 139.183-387.773 139.183-295.262 0-535.431-200.408-535.431-446.801 0-131.597 69.834-256.377 188.834-340.83-16.168-55.498-46.835-88.037-46.808-88.037-20.669-20.588-28.241-51.658-19.752-81.219 0.701-2.331 1.536-4.756 2.506-6.993 12.611-29.48 41.593-48.573 73.876-48.573 116.345 0 212.386 62.154 277.612 121.789 20.359-1.819 40.125-2.843 59.176-2.843 49.408 0 97.199 5.726 142.659 16.249 61.817-23.714 129.374-36.163 198.575-36.163 20.264 0 41.661 1.253 63.731 3.651 56.98-54.151 143.441-113.785 248.118-113.785 19.645 0 37.282 11.507 44.921 29.427 0.485 1.159 0.903 2.331 1.28 3.571 5.241 18.338 0.741 37.376-11.547 49.731-0.445 0.404-39.949 41.553-54.636 111.023 112.074 73.391 178.365 185.856 178.365 304.546zM540.955 159.205c-24.468 0-50.701 1.913-77.959 5.524-19.766 2.412-39.801-4.217-53.976-18.701-34.614-35.139-104.232-85.8-169.876-97.347 14.713 31.798 59.284 70.737 65.347 116.844 3.449 25.977-8.771 51.577-31.003 65.051-113.664 68.392-178.85 172.167-178.85 284.672 0 196.339 200.192 356.177 446.329 356.177s446.316-159.825 446.316-356.177c-0.013-196.19-200.205-356.042-446.329-356.042zM1120.458 170.631c-10.321-6.171-16.007-17.907-14.403-29.804 8.96-67.409 38.131-116.898 57.304-143.050-79.71 9.337-146.863 60.982-190.801 104.947-6.589 6.589-15.993 9.836-25.088 8.488-24.724-3.139-48.438-4.81-70.535-4.81-32.889 0-65.293 3.261-96.741 9.351 172.584 74.28 290.91 224.377 290.91 397.204 0 86.959-30.033 168.138-81.704 236.854 171.695-39.208 297.782-165.659 297.782-315.311-0.027-104.852-60.793-201.068-166.723-263.869z" />
<glyph unicode="&#xe808;" glyph-name="application" horiz-adv-x="764" d="M545.761 213.305h-327.298c-10.63 0-19.25-8.971-19.25-20.014 0-11.027 8.612-20.006 19.25-20.006h327.283c10.614 0 19.242 8.979 19.242 20.006 0.008 11.042-8.628 20.014-19.227 20.014zM545.761 370.543h-327.298c-10.63 0-19.25-8.994-19.25-20.021 0-11.058 8.612-20.029 19.25-20.029h327.283c10.614 0 19.242 8.971 19.242 20.029 0.008 11.027-8.628 20.021-19.227 20.021zM545.761 685.048h-327.298c-10.63 0-19.25-8.994-19.25-20.021 0-11.042 8.612-20.014 19.25-20.014h327.283c10.614 0 19.242 8.971 19.242 20.014 0.008 11.027-8.628 20.021-19.227 20.021zM723.762 913.102h-110.676c-5.838 0-11.302-1.444-16.254-3.867-11.432 21.29-32.546 35.649-56.756 35.649h-315.973c-24.156 0-45.285-14.367-56.71-35.657-4.952 2.422-10.416 3.874-16.246 3.874h-110.699c-21.259 0-38.492-17.966-38.492-40.028v-881.947c0-22.131 17.232-40.020 38.492-40.020h683.314c21.282 0 38.492 17.889 38.492 40.020v881.947c-0.015 22.069-17.225 40.028-38.492 40.028zM224.103 904.857h315.973c15.062 0 27.289-14.252 27.289-31.782s-12.235-31.782-27.289-31.782h-315.973c-15.031 0-27.258 14.252-27.258 31.782s12.235 31.782 27.258 31.782zM685.278 31.163h-606.338v801.891h72.207c5.838 0 11.31 1.452 16.246 3.874 11.44-21.298 32.554-35.68 56.71-35.68h315.973c24.209 0 45.323 14.382 56.748 35.664 4.952-2.4 10.416-3.859 16.262-3.859h72.192v-801.891zM545.761 527.803h-327.298c-10.63 0-19.25-8.964-19.25-20.021 0-11.027 8.612-20.006 19.25-20.006h327.283c10.614 0 19.242 8.979 19.242 20.006 0.008 11.065-8.628 20.021-19.227 20.021z" />
<glyph unicode="&#xe809;" glyph-name="message1" horiz-adv-x="1101" d="M545.043 949.121c-300.505 0-544.977-200.087-544.977-445.946 0-133.12 73.045-259.325 197.181-343.679-16.857-63.411-52.896-100.748-53.050-100.881-18.663-18.476-25.479-46.443-17.837-73.023 0.606-2.114 1.365-4.162 2.268-6.199 11.506-26.47 37.987-43.537 67.419-43.537 119.379 0 217.936 64.105 284.221 124.565 22.319-2.114 44.010-3.182 64.765-3.182 300.505 0 544.966 200.021 544.966 445.946 0.022 245.848-244.45 445.935-544.955 445.935zM545.043 160.267c-24.014 0-49.769 1.729-76.514 5.153-16.065 1.905-32.228-3.358-43.735-14.655-38.923-38.317-94.714-82.261-160.449-101.728 17.859 31.887 35.642 75.016 42.832 128.198 2.764 20.425-7.113 40.575-25.16 51.134-112.717 65.745-177.383 165.943-177.383 274.806 0 189.077 197.555 342.908 440.408 342.908 242.875 0 440.408-153.831 440.408-342.908 0-189.143-197.533-342.908-440.408-342.908zM775.851 448.738h-444.493c-14.435 0-26.151-11.55-26.151-25.798 0-14.182 11.704-25.721 26.151-25.721h444.493c14.446 0 26.151 11.539 26.151 25.721 0 14.27-11.715 25.798-26.151 25.798zM775.851 599.618h-444.493c-14.435 0-26.151-11.55-26.151-25.798 0-14.171 11.704-25.721 26.151-25.721h444.493c14.446 0 26.151 11.55 26.151 25.721 0 14.248-11.715 25.798-26.151 25.798z" />
<glyph unicode="&#xe80a;" glyph-name="car_sale" horiz-adv-x="1347" d="M1299.348 750.067c-5.080 0-10.294-0.741-15.495-2.183l-58.867-16.451-61.157 151c-17.314 42.779-68.514 77.568-114.122 77.568h-572.187c-45.608 0-96.808-34.789-114.136-77.568l-61.063-150.784-58.139 16.236c-5.214 1.442-10.415 2.183-15.495 2.183-27.823 0-48.020-21.558-48.020-51.24v-35.193c0-1.428 0.121-2.856 0.216-4.271-24.239-15.481-46.983-33.738-67.746-54.771-72.96-73.971-113.139-172.328-113.139-276.952 0-104.61 40.179-202.954 113.152-276.925s169.971-114.715 273.152-114.715 200.192 40.731 273.165 114.715c42.523 43.116 73.822 94.558 92.618 150.649h359.869v-74.914c0-34.654 27.81-62.855 62.006-62.855h80.977c34.183 0 62.006 28.2 62.006 62.855v299.978c0 42.954-13.096 110.255-29.184 149.976l-9.863 24.387h7.491c34.183 0 62.006 28.187 62.006 62.855v35.18c-0.027 29.683-20.224 51.24-48.047 51.24zM577.711 133.619c-51.133-51.847-119.094-80.397-191.407-80.397s-140.275 28.551-191.407 80.397c-51.119 51.833-79.279 120.724-79.279 194.021s28.16 142.215 79.279 194.048c51.119 51.82 119.094 80.371 191.407 80.371s140.275-28.551 191.407-80.371c51.119-51.847 79.279-120.751 79.279-194.048s-28.16-142.188-79.279-194.021zM674.493 588.396c-4.851 5.511-9.836 10.927-15.023 16.195-72.973 73.971-169.984 114.715-273.165 114.715-1.805 0-3.597-0.121-5.403-0.135l58.368 144.128c10.361 25.587 41.162 46.525 68.446 46.525h511.784c27.284 0 58.099-20.938 68.446-46.525l92.483-228.379c10.361-25.587-3.49-46.525-30.774-46.525h-475.163zM1197.608 346.045c0-13.824-11.17-25.142-24.819-25.142h-175.67c-13.649 0-24.805 11.318-24.805 25.142v85.491c0 13.824 11.156 25.128 24.805 25.128h175.67c13.649 0 24.819-11.304 24.819-25.128v-85.491zM456.515 339.779c-13.285 7.047-31.65 14.565-55.053 22.501-21.288 7.276-35.234 13.339-41.688 18.243-6.508 4.945-9.755 12.005-9.755 21.208 0 9.027 3.368 16.721 10.119 23.067 6.71 6.333 15.643 9.499 26.772 9.499 22.178 0 38.508-14.188 49.125-42.563l54.285 20.682c-12.962 41.391-41.485 64.525-85.531 69.43v33.792h-39.411v-33.779c-29.184-3.813-50.54-14.269-64.121-31.353-13.568-17.125-20.399-36.419-20.399-57.816 0-16.303 3.813-30.639 11.412-42.954 7.599-12.261 17.516-21.8 29.709-28.605 12.18-6.872 29.13-13.743 50.796-20.709 24.091-7.923 39.653-14.457 46.632-19.618 6.993-5.133 10.483-12.719 10.483-22.73 0-9.661-3.503-17.893-10.483-24.711-6.993-6.831-17.96-10.24-32.795-10.24-31.731 0-50.419 15.939-56.064 47.818l-60.941-14.754c12.315-50.728 44.207-78.565 95.757-83.469v-43.507h39.411v43.736c30.922 3.018 54.568 13.056 70.939 30.114 16.371 17.017 24.576 38.306 24.576 63.838 0 16.64-3.975 31.165-11.897 43.614-7.949 12.436-18.553 22.205-31.879 29.265z" />
<glyph unicode="&#xe80b;" glyph-name="phone3" d="M511.98 960c-282.286 0-511.908-229.652-511.908-511.908 0-282.245 229.642-511.898 511.898-511.898 282.266 0 511.908 229.612 511.908 511.898 0 282.276-229.632 511.908-511.898 511.908zM511.98 18.688c-236.769 0-429.394 192.635-429.394 429.404 0 236.78 192.625 429.404 429.394 429.404 236.79 0 429.414-192.625 429.414-429.404 0-236.769-192.635-429.404-429.414-429.404zM680.837 636.59c-49.961 49.94-131.226 49.94-181.176 0l-176.138-176.108c-49.961-49.971-49.961-131.297 0-181.197l40.284-40.325c13.046-13.066 34.171-13.066 47.258 0l56.115 56.136c13.066 13.005 13.046 34.191 0 47.227l-20.163 20.142c-1.792 1.812-2.755 4.045-3.389 6.38-13.824 18.483-12.472 44.749 4.362 61.583l81.664 81.684c16.814 16.804 43.090 18.135 61.624 4.352 2.335-0.573 4.547-1.577 6.359-3.41l20.142-20.111c13.066-13.056 34.202-13.056 47.278 0l56.105 56.125c13.056 13.015 13.056 34.15 0 47.237l-40.325 40.284z" />
<glyph unicode="&#xe80c;" glyph-name="label-reverse" d="M979.784 920.893l-372.050 39.66-607.232-607.293 416.676-416.748 607.007 607.037-44.401 377.344zM301.036 304.026c-6.881 0-13.681 2.632-18.913 7.803-10.455 10.496-10.455 27.382 0 37.786l261.161 261.202c10.424 10.404 27.351 10.404 37.755 0 10.465-10.516 10.465-27.382 0-37.806l-261.14-261.181c-5.202-5.171-12.032-7.803-18.862-7.803zM687.923 466.104l-261.151-261.1c-5.202-5.243-12.032-7.864-18.893-7.864-6.84 0-13.67 2.621-18.883 7.864-10.455 10.445-10.455 27.32 0 37.724l261.161 261.202c10.424 10.414 27.3 10.414 37.765 0 10.435-10.445 10.435-27.412 0-37.827zM807.885 659.466c-49.101 0-89.037 39.956-89.037 89.088 0 49.060 39.956 89.016 89.037 89.016 49.101 0 89.098-39.987 89.098-89.016 0-49.121-39.997-89.088-89.098-89.088z" />
<glyph unicode="&#xe80d;" glyph-name="transmission" d="M512.002 960c-282.318 0-512.002-229.68-512.002-511.998s229.684-512.002 512.002-512.002 512.002 229.684 512.002 512.002-229.688 511.998-512.002 511.998zM512.010 49.438c-219.767 0-398.56 178.793-398.56 398.564s178.793 398.568 398.56 398.568c219.771 0 398.568-178.797 398.568-398.568s-178.801-398.564-398.568-398.564zM752.89 630.761c-17.701 0-32.056-14.35-32.056-32.056v-121.275h-96.481v121.275c0 17.701-14.35 32.056-32.056 32.056s-32.056-14.35-32.056-32.056v-121.275h-96.489v121.275c0 17.701-14.35 32.056-32.056 32.056-17.701 0-32.056-14.35-32.056-32.056v-121.275h-96.489v121.275c0 17.701-14.35 32.056-32.056 32.056-17.701 0-32.056-14.35-32.056-32.056v-140.131c0-31.094 19.274-45.251 37.185-45.251h123.415v-116.033c0-17.701 14.35-32.056 32.056-32.056 17.701 0 32.056 14.35 32.056 32.056v116.033h96.489v-116.033c0-17.701 14.35-32.056 32.056-32.056s32.056 14.35 32.056 32.056v116.033h96.481v-116.033c0-17.701 14.35-32.056 32.056-32.056 17.701 0 32.056 14.35 32.056 32.056v301.415c0 17.701-14.35 32.056-32.056 32.056z" />
<glyph unicode="&#xe80e;" glyph-name="fuel1" d="M964.451 953.596c-16.685 11.423-39.466 7.151-50.889-9.533l-80.876-118.15c-0.142-0.205-0.283-0.415-0.42-0.625l-26.804-40.946c-19.228-29.367-29.445-63.444-29.542-98.547l-1.435-516.232c-0.024-8.445-6.902-15.298-15.357-15.298-0.015 0-0.029 0-0.044 0h-1.030c-5.531 0.015-9.162 2.841-10.837 4.525s-4.476 5.331-4.462 10.861l0.82 294.21c0.161 58.66-46.462 106.708-104.648 108.807l0.586 209.995c0.073 25.862-9.929 50.201-28.166 68.54-18.232 18.335-42.517 28.473-68.379 28.547l-400.552 1.123c-53.237 0-96.667-43.313-96.814-96.545l-1.987-712.686c-0.093-33.716 23.538-62.014 55.131-69.185l-0.078-28.6c-0.054-20.219 16.289-36.655 36.508-36.713l410.041-1.142c0.034 0 0.068 0 0.103 0 9.67 0 18.955 3.827 25.818 10.651 6.888 6.844 10.768 16.148 10.793 25.857l0.078 28.6c31.617 7 55.419 35.2 55.512 68.877l1.196 429.372c8.064-0.844 15.538-4.403 21.337-10.232 6.668-6.702 10.324-15.601 10.295-25.052l-0.82-294.21c-0.068-23.655 9.084-45.92 25.764-62.697 16.68-16.773 38.895-26.047 62.57-26.116h1.030c0.083 0 0.161 0 0.244 0 48.717 0 88.422 39.564 88.564 88.315l1.435 516.237c0.024 8.791 1.176 17.456 3.285 25.867 11.901-7.635 25.994-12.145 41.151-12.189 0.034 0 0.19 0.020 0.215 0 42.273 0 76.761 34.395 76.883 76.668 0.059 20.536-7.888 39.867-22.367 54.428-4.715 4.74-9.983 8.718-15.601 12.028l41.277 60.3c11.423 16.685 7.156 39.471-9.529 50.889zM505.976 745.822l-0.434-156.206-325.431 0.908 0.434 156.206 325.431-0.908zM934.064 776.165c0-22.242-18.030-40.272-40.272-40.272s-40.272 18.030-40.272 40.272c0 22.242 18.030 40.272 40.272 40.272s40.272-18.030 40.272-40.272z" />
<glyph unicode="&#xe80f;" glyph-name="road" d="M1009.358 194.254l-234.62 587.386c-3.001 7.128-7.877 13.316-14.622 18.562-6.757 5.258-13.891 7.881-21.389 7.881h-190.732c4.871 0 9.185-1.778 12.935-5.338 3.748-3.571 5.811-7.782 6.192-12.657l8.442-108.033c0.376-5.252-1.119-9.566-4.483-12.935-3.386-3.376-7.508-5.061-12.389-5.061h-93.397c-4.875 0-8.996 1.685-12.374 5.061-3.376 3.368-4.875 7.684-4.495 12.935l8.44 108.033c0.37 4.875 2.43 9.087 6.188 12.657 3.75 3.555 8.060 5.338 12.941 5.338h-190.737c-7.5 0-14.628-2.623-21.382-7.881-6.748-5.24-11.619-11.434-14.624-18.562l-234.624-587.386c-9.753-23.254-14.628-45.008-14.628-65.266 0-27.382 8.626-41.070 25.883-41.070h396.093c-4.875 0-8.996 1.779-12.376 5.34-3.376 3.573-4.875 7.782-4.495 12.665l11.248 144.015c0.374 4.883 2.438 9.098 6.188 12.665 3.748 3.569 8.066 5.335 12.941 5.335h153.029c4.883 0 9.185-1.766 12.947-5.335 3.75-3.567 5.813-7.782 6.186-12.665l11.262-144.015c0.384-4.883-1.133-9.091-4.497-12.665-3.372-3.561-7.5-5.34-12.382-5.34h396.087c17.251 0 25.885 13.688 25.885 41.070 0 20.25-4.883 42.006-14.642 65.266zM596.962 391.743c0.365-4.505-1.133-8.253-4.505-11.248-3.366-3.007-7.317-4.505-11.814-4.505h-137.285c-4.503 0-8.448 1.498-11.816 4.505-3.38 3.007-4.877 6.757-4.505 11.248v2.252l13.507 180.031c0.374 4.877 2.438 9.095 6.188 12.659s8.066 5.344 12.941 5.344h104.642c4.883 0 9.199-1.774 12.947-5.344 3.748-3.565 5.813-7.782 6.192-12.659l13.503-180.031v-2.252h0.006z" />
<glyph unicode="&#xe810;" glyph-name="search" d="M1001.28 70.144l-211.072 211.072c50.88 73.408 76.288 155.328 76.288 245.568 0 58.688-11.392 114.816-34.112 168.32-22.784 53.568-53.632 99.776-92.352 138.496s-84.864 69.568-138.432 92.288-109.696 34.112-168.384 34.112c-58.688 0-114.752-11.392-168.32-34.112-53.568-22.784-99.712-53.568-138.432-92.352-38.784-38.72-69.568-84.928-92.352-138.496-22.784-53.504-34.112-109.632-34.112-168.32 0-58.624 11.392-114.752 34.176-168.32 22.72-53.568 53.504-99.712 92.288-138.432 38.72-38.784 84.928-69.568 138.496-92.288 53.568-22.784 109.632-34.176 168.32-34.176 90.304 0 172.16 25.408 245.504 76.288l211.136-210.432c14.72-15.616 33.216-23.36 55.36-23.36 21.376 0 39.808 7.744 55.36 23.36 15.616 15.552 23.36 34.048 23.36 55.36 0 21.76-7.488 40.192-22.72 55.424zM628.032 331.968c-53.952-53.952-118.848-80.96-194.752-80.96s-140.8 27.008-194.752 80.96c-54.016 53.952-81.024 118.912-81.024 194.752 0 75.968 27.008 140.864 80.96 194.816s118.848 80.96 194.752 80.96 140.864-27.008 194.816-80.96c54.016-53.952 80.96-118.848 80.96-194.816-0.064-75.84-27.008-140.8-80.96-194.752z" />
<glyph unicode="&#xe811;" glyph-name="reset" horiz-adv-x="926" d="M463.189 864.232c-16.92 0-34.085-0.975-51.054-2.926v75.093c0 9.655-5.949 18.432-14.677 22.187-9.167 3.511-19.261 1.512-26.185-5.413l-164.035-164.815c-9.362-9.362-9.362-24.283 0-33.792l163.938-165.205c7.022-6.778 17.115-8.875 26.234-5.12 8.777 3.706 14.726 12.434 14.726 22.040v83.237c16.92 3.121 33.987 4.535 51.054 4.535 161.743 0 293.4-131.901 293.4-293.986 0-162.036-131.657-294.083-293.4-294.083-161.646 0-293.205 132.096-293.205 294.083 0 13.166-10.679 23.893-23.942 23.893h-121.807c-13.214 0-23.942-10.776-23.942-23.893 0-255.902 207.823-464.311 462.897-464.311 255.269 0 462.994 208.408 462.994 464.311s-207.726 464.165-462.994 464.165z" />
<glyph unicode="&#xe812;" glyph-name="phone21" d="M512 960c-282.312 0-512-229.688-512-512s229.688-512 512-512c46.376 0 92.312 6.188 140.938 20 98.5 43.562 152.25 151.062 128.438 255.938l1 1c15 14.938 21.75 43.75 15.062 63.876l-2.876 8.75c-6.75 20.124-29 41.124-49.5 46.75l-75.686 20.686c-20.5 5.562-49.75-1.938-64.81-17l-27.376-27.376c-99.5 26.938-177.562 105-204.438 204.5l27.376 27.376c15 15 22.5 44.25 16.938 64.812l-20.628 75.688c-5.562 20.5-26.688 42.75-46.812 49.5l-8.626 2.876c-20.188 6.75-49-0.062-64-15.126l-41-41c-7.312-7.25-12-28.062-12-28.126-1.376-130.126 49.626-255.438 141.626-347.5 91.75-91.75 216.626-142.69 346.312-141.562 0.312 0 5.062 1.062 10.688 2.75 0.376-62.938-35.31-121.75-91.124-146.688-38.69-10.686-78.878-16.124-119.502-16.124-247 0-448 201-448 448s201 448 448 448 448-201 448-448c0-73.624-17.5-144.062-52.062-209.25-8.25-15.624-2.25-35 13.312-43.25 15.688-8.376 35-2.312 43.25 13.25 38.938 73.5 59.5 156.25 59.5 239.25 0 282.312-229.688 512-512 512z" />
<glyph unicode="&#xe813;" glyph-name="question" d="M508.835 650.151c47.367 0 75.823-25.266 75.823-67.886 0-77.405-138.17-98.74-138.17-192.683 0-25.266 16.538-52.879 50.506-52.879 52.114 0 45.81 38.69 64.772 66.354 25.24 37.082 142.917 76.563 142.917 179.233 0 111.297-99.455 157.923-200.543 157.923-96.29 0-184.771-68.702-184.771-146.107 0-31.569 23.709-48.158 51.348-48.158 76.537-0.026 37.082 104.202 138.119 104.202zM564.905 220.583c0 35.551-29.221 64.746-64.746 64.746s-64.746-29.247-64.746-64.746c0-35.551 29.221-64.746 64.746-64.746s64.746 29.196 64.746 64.746zM1024 448c0 282.312-229.688 512-512 512s-512-229.688-512-512 229.688-512 512-512 512 229.662 512 512zM51.042 448c0 254.162 206.796 460.958 460.958 460.958s460.958-206.796 460.958-460.958c0-254.162-206.796-460.958-460.958-460.958s-460.958 206.796-460.958 460.958z" />
<glyph unicode="&#xe814;" glyph-name="steering_wheel" d="M512 960c-282.752 0-512-229.248-512-512s229.248-512 512-512 512 229.248 512 512-229.248 512-512 512zM512 832c166.624 0 307.36-107.328 360.512-256h-721.024c53.152 148.672 193.888 256 360.512 256zM512 384c-35.36 0-64 28.64-64 64s28.64 64 64 64 64-28.64 64-64-28.64-64-64-64zM128 448c174.88 0 316.512-168.512 319.488-377.504-180.992 31.008-319.488 187.872-319.488 377.504zM576.512 70.496c2.976 208.992 144.608 377.504 319.488 377.504 0-189.632-138.496-346.496-319.488-377.504z" />
<glyph unicode="&#xe900;" glyph-name="ac-brochure" d="M736.376-64h-486.039c-25.058 0-159.985-19.456-159.985 176.971v606.088c0 200.764 3.795 240.941 180.706 240.941h271.059l391.529-358.701v-484.593c0-39.454 15.119-180.706-197.271-180.706zM813.176 598.588h-240.941v240.941h-361.412v-783.059h602.353v542.118zM572.597 477.515h-240.941v60.235h240.941v-60.235zM693.067 357.045h-361.412v60.235h361.412v-60.235zM693.067 236.574h-361.412v60.235h361.412v-60.235z" />
<glyph unicode="&#xe901;" glyph-name="cart" d="M1016.087 644.236l-175.476-378.182c-14.491-30.23-44.849-50.735-79.997-50.735-0.021 0-0.043 0-0.064 0h-555.749c-0.069 0-0.152 0-0.234 0-48.293 0-87.473 39.017-87.737 87.248v432.898l-103.796 103.564c-8.023 7.892-12.995 18.865-12.995 31 0 24.010 19.464 43.473 43.473 43.473 0.085 0 0.17 0 0.254-0.001h-0.013c0.035 0 0.076 0 0.117 0 12.112 0 23.087-4.87 31.073-12.758l-0.005 0.004 133.585-132.701h727.505c0.152 0.001 0.332 0.002 0.513 0.002 48.302 0 87.459-39.157 87.459-87.459 0-13.182-2.916-25.682-8.139-36.892l0.225 0.538zM204.8 302.592h555.753l107.985 232.727h-663.738v-232.727zM936.029 680.727h-731.229v-58.182h704.233l27.462 58.182h-0.465zM234.124 157.091c47.898-0.395 86.575-39.316 86.575-87.27 0-48.199-39.073-87.273-87.273-87.273s-87.271 39.072-87.273 87.27v0c0.025 48.206 39.11 87.275 87.319 87.275 0.229 0 0.458-0.001 0.687-0.003h-0.035zM702.371 157.091c47.898-0.395 86.575-39.316 86.575-87.27 0-48.199-39.073-87.273-87.273-87.273s-87.271 39.072-87.273 87.27v0c0.025 48.206 39.11 87.275 87.319 87.275 0.229 0 0.458-0.001 0.687-0.003h-0.035z" />
<glyph unicode="&#xe902;" glyph-name="add-to-cart" horiz-adv-x="1126" d="M1117.542 664.064l-193.075-416.256c-15.831-33.224-49.131-55.782-87.702-55.808h-611.485c-0.061 0-0.133 0-0.205 0-53.181 0-96.3 43.083-96.358 96.251v476.166l-114.586 113.664c-8.725 8.572-14.131 20.495-14.131 33.682 0 0.039 0 0.077 0 0.116v-0.006c0.207 26.62 21.835 48.12 48.485 48.12 13.197 0 25.162-5.272 33.905-13.825l-0.009 0.009 146.79-145.92h78.029v-96.256h-81.92v-415.744h611.482l193.126 415.744h-108.288v96.256h108.237c0.061 0 0.133 0 0.205 0 53.181 0 96.3-43.083 96.358-96.251v-0.006c0.001-0.128 0.001-0.279 0.001-0.43 0-14.351-3.267-27.939-9.099-40.060l0.24 0.555zM257.382 128c52.799-0.291 95.488-43.159 95.488-95.999 0-53.019-42.981-96-96-96s-96 42.981-96 96c0 0.090 0 0.179 0 0.269v-0.014c0.29 52.94 43.274 95.744 96.255 95.744 0.109 0 0.217 0 0.325-0.001h-0.017zM772.301 128c52.799-0.291 95.488-43.159 95.488-95.999 0-53.019-42.981-96-96-96s-96 42.981-96 96c0 0.090 0 0.179 0 0.269v-0.014c0.29 52.94 43.274 95.744 96.255 95.744 0.109 0 0.217 0 0.325-0.001h-0.017zM614.4 806.4v0c-28.277 0-51.2-22.923-51.2-51.2v-307.2c0-28.277 22.923-51.2 51.2-51.2s51.2 22.923 51.2 51.2v307.2c0 28.277-22.923 51.2-51.2 51.2zM460.8 652.8h307.2c28.277 0 51.2-22.923 51.2-51.2s-22.923-51.2-51.2-51.2v0h-307.2c-28.277 0-51.2 22.923-51.2 51.2s22.923 51.2 51.2 51.2v0z" />
<glyph unicode="&#xe903;" glyph-name="compare" horiz-adv-x="1112" d="M575.025 313.881c27.625 0 50.020 22.395 50.020 50.020s-22.395 50.020-50.020 50.020v0l-227.155 166.598 177.002-219.73c1.801-26.251 23.537-46.863 50.087-46.863 0.023 0 0.047 0 0.070 0h-0.004zM555.773 959.378c-0.576 0.002-1.257 0.003-1.939 0.003-305.815 0-553.727-247.912-553.727-553.727 0-115.038 35.080-221.883 95.127-310.42l-1.241 1.941h69.36l1.467-1.69 2.001 1.69h2.668c-0.445 0.445-0.711 1.023-1.067 1.378l96.304 83.899-46.552 53.087-89.768-78.297c-42.432 70.977-67.526 156.561-67.537 248.005v0.003c0 4.446 0.489 8.27 0.578 12.583h110.488v70.472h-103.507c15.206 88.097 51.959 165.733 104.63 229.784l-0.678-0.85 77.586-77.275 49.931 49.797-78.608 78.386c76.241 70.403 175.277 117.147 284.863 128.019l2.049 0.164v-126.627h70.694v127.783c123.916-5.607 235.043-56.161 318.365-135.616l-0.196 0.186-80.476-80.298 50.020-49.842 78.075 77.853c48.94-61.57 83.664-136.59 97.971-218.624l0.423-2.93h-107.464v-70.428h114.445c0-4.446 0.711-8.27 0.711-12.627 0-0.064 0-0.14 0-0.217 0-90.916-24.877-176.021-68.196-248.881l1.236 2.245-84.477 83.988-49.842-49.797 93.77-93.592c-0.417-0.654-0.842-1.22-1.304-1.752l0.015 0.018h75.585c58.757 86.581 93.807 193.392 93.807 308.39 0 305.864-247.952 553.816-553.816 553.816-0.623 0-1.246-0.001-1.868-0.003h0.097zM303.185 66.673h500.773v-130.006h-500.818v130.006z" />
<glyph unicode="&#xe904;" glyph-name="fire" d="M459.435-64c-175.541 4.355-317.828 140.971-331.149 313.719l-0.072 1.161c-0.146 3.747-0.229 8.146-0.229 12.564 0 138.866 81.993 258.581 200.207 313.375l2.134 0.887c-41.941-89.6 128.555-104.96 119.168 5.12-4.693 55.467-28.032 84.907-28.032 163.84 8.841 86.881 52.307 162.165 116.18 212.842l0.642 0.491c-5.299-15.768-8.356-33.925-8.356-52.796 0-31.112 8.311-60.284 22.833-85.415l-0.439 0.824c111.531-183.467 343.509-294.827 343.509-544-0.379-181.709-141.559-330.324-320.215-342.555l-1.065-0.058c198.016 72.96 161.792 278.613 122.069 350.72-9.941-87.893-83.541-160.853-144.299-157.013 101.632 103.68 112.171 308.48-49.067 445.867 74.752-246.187-148.992-254.72-157.483-452.267-2.261-53.333 18.432-118.613 113.664-187.307z" />
<glyph unicode="&#xe905;" glyph-name="ac-message" d="M950.857 137.509c-0.296-9.978-8.308-17.99-18.258-18.285l-0.028-0.001h-841.143c-10.033 0.162-18.124 8.253-18.286 18.27v438.506c12.025-13.757 24.947-26.099 38.896-37.207l0.601-0.462c81.554-62.903 163.84-126.903 243.2-193.097 42.789-35.84 96.183-79.726 155.429-79.726h1.097c59.611 0 112.64 43.886 155.429 79.726 79.36 66.194 161.646 130.194 243.566 193.097 14.55 11.569 27.473 23.912 39.202 37.324l0.295 0.345v-438.491zM950.857 737.28c0-48.274-46.811-111.543-84.114-140.8-76.434-59.977-153.234-120.32-228.937-181.029-30.354-24.503-85.211-77.166-125.44-77.166h-1.097c-39.863 0-94.72 52.663-125.074 77.166q-114.103 91.063-228.937 181.029c-50.275 37.061-82.861 95.604-84.111 161.814l-0.003 0.197c0.162 10.033 8.253 18.124 18.27 18.286h841.158c21.577 0 18.286-25.234 18.286-39.497zM1024 758.491c-0.145 50.436-40.993 91.283-91.415 91.429h-841.157c-50.495 0-91.429-40.934-91.429-91.429v0-620.983c0.145-50.436 40.993-91.283 91.415-91.429h841.157c50.378 0.289 91.14 41.051 91.428 91.401v621.011z" />
<glyph unicode="&#xe906;" glyph-name="ac-offer-price" d="M874.24 85.76c-92.875-93.116-221.31-150.726-363.2-150.726-283.3 0-512.96 229.66-512.96 512.96s229.66 512.96 512.96 512.96c283.298 0 512.956-229.656 512.96-512.953v-0.001c0.002-0.52 0.003-1.137 0.003-1.753 0-140.86-57.248-268.349-149.746-360.469l-0.017-0.017zM512 844.8c-219.147 0-396.8-177.653-396.8-396.8s177.653-396.8 396.8-396.8c219.147 0 396.8 177.653 396.8 396.8v0c-0.182 219.074-177.727 396.618-396.783 396.8h-0.017zM522.24 507.52h2.56c133.12-31.36 152.96-110.72 152.96-155.52 0-0.031 0-0.067 0-0.103 0-71.992-49.343-132.458-116.054-149.427l-1.067-0.23v-23.68c0-27.040-21.92-48.96-48.96-48.96s-48.96 21.92-48.96 48.96v0 25.6c-47.307 14.97-84.762 49.078-103.901 93.001l-0.419 1.079c-2.511 5.675-3.973 12.293-3.973 19.253 0 19.974 12.040 37.137 29.259 44.625l0.314 0.122c5.674 2.396 12.268 3.804 19.186 3.84h0.014c0.095 0.001 0.208 0.001 0.321 0.001 19.867 0 36.934-11.99 44.359-29.128l0.121-0.313c10.257-25.695 34.931-43.52 63.769-43.52 0.081 0 0.162 0 0.243 0h-0.013c2.106-0.256 4.544-0.402 7.016-0.402 33.186 0 60.233 26.284 61.461 59.17l0.003 0.112c0 10.88 0 42.24-78.72 60.16h-1.28l-1.28 0.64c-50.94 8.487-94.69 34.435-125.823 71.367l-0.257 0.313c-16.795 22.648-26.885 51.146-26.885 82.001 0 0.422 0.002 0.843 0.006 1.263v-0.064c0 0.057 0 0.125 0 0.193 0 72.126 49.303 132.738 116.045 149.971l1.075 0.236v23.68c0 27.040 21.92 48.96 48.96 48.96s48.96-21.92 48.96-48.96v0-25.6c38.13-12.039 69.536-36.187 90.492-67.856l0.388-0.624c5.219-7.998 8.323-17.788 8.323-28.304 0-2.886-0.234-5.718-0.684-8.477l0.041 0.302c-4.522-22.744-24.32-39.65-48.067-39.65-16.615 0-31.297 8.277-40.149 20.932l-0.105 0.158c-0.64 0.64-0.64 1.28-1.28 1.92-12.226 19.69-33.721 32.612-58.236 32.64h-0.004c-2.081 0.249-4.491 0.392-6.934 0.392-33.421 0-60.622-26.629-61.544-59.827l-0.002-0.085c0-10.24 0-41.6 78.72-60.16z" />
<glyph unicode="&#xe907;" glyph-name="ac-phone" d="M685.511-64h-347.022c-1.415-0.044-3.080-0.069-4.75-0.069-88.253 0-160.141 70.070-163.065 157.611l-0.007 0.268v708.437c2.93 87.779 74.793 157.824 163.015 157.824 1.69 0 3.375-0.026 5.053-0.077l-0.246 0.006h347.022c1.432 0.045 3.116 0.071 4.805 0.071 88.242 0 160.117-70.077 163.010-157.615l0.007-0.265v-708.324c-2.901-87.835-74.801-157.936-163.074-157.936-1.67 0-3.334 0.025-4.992 0.075l0.243-0.006zM749.796 802.19c-1.307 33.528-28.804 60.213-62.533 60.213-0.616 0-1.23-0.009-1.841-0.027l0.090 0.002h-347.022c-0.522 0.016-1.136 0.025-1.751 0.025-33.729 0-61.226-26.685-62.529-60.095l-0.004-0.118v-708.267c1.307-33.528 28.804-60.213 62.533-60.213 0.616 0 1.23 0.009 1.841 0.027l-0.090-0.002h347.022c0.522-0.016 1.136-0.025 1.751-0.025 33.729 0 61.226 26.685 62.529 60.095l0.004 0.118v708.324zM570.027 694.101h-116.053c-0.998-0.072-2.161-0.114-3.335-0.114-27.020 0-48.924 21.904-48.924 48.924s21.904 48.924 48.924 48.924c1.173 0 2.337-0.041 3.49-0.123l-0.155 0.009h116.053c1.413 0.145 3.054 0.228 4.713 0.228 27.020 0 48.924-21.904 48.924-48.924s-21.904-48.924-48.924-48.924c-1.66 0-3.3 0.083-4.917 0.244l0.204-0.016zM512 261.746c40.040-2.501 71.566-35.586 71.566-76.035 0-42.070-34.104-76.174-76.174-76.174-42.061 0-76.16 34.090-76.174 76.147v0.001c1.283 42.481 36.027 76.429 78.7 76.429 0.732 0 1.462-0.010 2.189-0.030l-0.107 0.002z" />
<glyph unicode="&#xe908;" glyph-name="phone" d="M726.668-17.455c-25.050 0.015-49.048 4.501-71.244 12.703l1.426-0.461c-281.865 105.79-497.688 330.493-589.188 611.336l-1.939 6.88c-6.489 19.64-10.231 42.248-10.231 65.73 0 68.759 32.091 130.023 82.112 169.632l0.451 0.344 45.009 34.956c23.431 18.522 53.386 29.732 85.957 29.789h0.013c55.403-0.135 103.34-31.965 126.65-78.311l0.372-0.817 76.102-150.668c6.952-13.556 11.028-29.574 11.031-46.544v-0.001c-0.043-26.43-10.092-50.505-26.56-68.646l0.076 0.085-15.825-17.548c-9.118-10.157-14.693-23.655-14.693-38.455 0-9.433 2.265-18.336 6.28-26.197l-0.151 0.326c26.1-51.178 66.267-92.003 115.409-118.209l1.467-0.714c7.389-3.856 16.138-6.117 25.415-6.117 14.595 0 27.882 5.598 37.833 14.764l-0.039-0.036 17.268 16.105c17.781 16.377 41.618 26.418 67.801 26.418 16.528 0 32.122-4.001 45.866-11.089l-0.561 0.263 148.015-77.498c46.607-25.186 77.736-73.687 77.736-129.458 0-39.641-15.727-75.61-41.282-102.005l0.038 0.039-51.526-53.062c-37.838-38.934-90.596-63.195-149.021-63.534h-0.064zM269.265 826.228c-0.051 0-0.112 0-0.172 0-13.014 0-24.989-4.451-34.485-11.914l0.12 0.091-45.009-35.002c-29.897-23.648-48.907-59.924-48.907-100.639 0-13.933 2.226-27.345 6.342-39.902l-0.257 0.905c85.059-261.911 281.528-466.45 532.010-560.72l6.102-2.014c12.202-4.372 26.28-6.898 40.947-6.898 34.829 0 66.33 14.247 88.993 37.232l0.014 0.014 51.526 53.108c10.222 10.536 16.523 24.925 16.523 40.787 0 22.334-12.494 41.749-30.873 51.639l-0.312 0.153-148.015 77.498c-1.818 0.826-3.943 1.307-6.18 1.307-3.756 0-7.195-1.356-9.854-3.606l0.022 0.019-17.315-16.151c-25.185-23.154-58.926-37.348-95.983-37.348-23.488 0-45.643 5.702-65.159 15.798l0.792-0.373c-66.521 35.448-119.308 89.163-152.66 154.458l-0.94 2.028c-9.846 19.16-15.617 41.806-15.617 65.801 0 37.482 14.082 71.674 37.245 97.575l-0.124-0.141 15.825 17.548c2.364 2.562 3.814 5.998 3.814 9.773 0 2.396-0.584 4.656-1.618 6.644l0.038-0.080-76.102 150.714c-9.483 18.94-28.73 31.721-50.964 31.744h-0.003z" />
<glyph unicode="&#xe909;" glyph-name="ac-trade-in" d="M867.2 19.84h-405.12c-3.146-32.343-22.651-59.508-50.035-73.359l-0.525-0.241c-11.714-6.451-25.675-10.247-40.522-10.247-0.379 0-0.757 0.002-1.135 0.007l0.057-0.001c-0.168-0.001-0.367-0.002-0.565-0.002-20.603 0-39.574 6.984-54.677 18.713l0.202-0.151-213.12 160c-23.031 17.405-37.76 44.743-37.76 75.52s14.729 58.115 37.523 75.348l0.237 0.172 213.12 160c15.189 11.37 34.345 18.205 55.098 18.205 48.134 0 87.679-36.773 92.074-83.758l0.028-0.368h405.12c51.345-0.434 92.801-42.158 92.801-93.565 0-0.181-0.001-0.362-0.002-0.543v0.028-151.68c0.001-0.153 0.001-0.334 0.001-0.515 0-51.407-41.456-93.131-92.76-93.565h-0.041zM850.56 248.96h-497.92v66.56l-167.040-125.44 167.040-126.080v67.2h497.92v117.76zM922.24 630.4l-213.12-160c-15.065-11.581-34.192-18.56-54.95-18.56-0.032 0-0.063 0-0.095 0h0.005c-48.068 0.512-87.412 37.192-92.128 84.087l-0.032 0.393h-405.12c-51.345 0.434-92.801 42.158-92.801 93.565 0 0.181 0.001 0.362 0.002 0.543v-0.028 151.68c-0.001 0.153-0.001 0.334-0.001 0.515 0 51.407 41.456 93.131 92.76 93.565h405.161c3.146 32.343 22.651 59.508 50.035 73.359l0.525 0.241c11.714 6.451 25.675 10.247 40.522 10.247 0.379 0 0.757-0.002 1.135-0.007l-0.057 0.001c0.027 0 0.058 0 0.090 0 20.758 0 39.885-6.979 55.164-18.718l-0.215 0.158 213.12-160c23.019-17.203 37.761-44.383 37.761-75.007 0-0.18-0.001-0.36-0.002-0.54v0.028c-0.128-30.749-14.819-58.040-37.528-75.35l-0.232-0.17zM671.36 832v-67.2h-497.92v-117.76h497.92v-66.56l167.040 125.44z" />
<glyph unicode="&#xe90a;" glyph-name="time" d="M512.233 27.695c-231.808 0.185-419.654 188.146-419.654 419.98 0 231.948 188.031 419.98 419.98 419.98s419.979-188.031 419.98-419.979v-0.001c0-231.948-188.031-419.98-419.98-419.98-0.115 0-0.229 0-0.344 0h0.018zM512.233 762.694c-173.94-0.053-314.927-141.072-314.927-315.020 0-173.981 141.039-315.020 315.020-315.020s315.020 141.039 315.020 315.020v0c0 0.028 0 0.060 0 0.093 0 173.929-140.997 314.927-314.927 314.927-0.066 0-0.131 0-0.197 0h0.010zM696.087 394.985h-209.92c-14.407 0.053-26.066 11.744-26.066 26.158 0 0.033 0 0.066 0 0.098v-0.005 262.516c0 0.028 0 0.060 0 0.093 0 14.414 11.659 26.106 26.061 26.158h52.601c14.407-0.053 26.066-11.744 26.066-26.158 0-0.033 0-0.066 0-0.098v0.005-183.761h131.258c14.407-0.053 26.066-11.744 26.066-26.158 0-0.033 0-0.066 0-0.098v0.005-52.503c-0.053-14.374-11.691-26.013-26.060-26.065h-0.005z" />
<glyph unicode="&#xe90b;" glyph-name="note" horiz-adv-x="755" d="M723.052-64h-691.631c-17.386 0.152-31.422 14.281-31.422 31.689 0 0.095 0 0.19 0.001 0.285v-0.014 832.081c-0.003 0.257-0.004 0.561-0.004 0.866 0 52.253 42.131 94.665 94.276 95.121h94.359v16.168c0 26.045 21.113 47.158 47.158 47.158s47.158-21.113 47.158-47.158v0-16.168h188.632v16.168c0 26.045 21.113 47.158 47.158 47.158s47.158-21.113 47.158-47.158v0-16.168h94.316c52.189-0.456 94.32-42.868 94.32-95.121 0-0.304-0.001-0.608-0.004-0.912v0.047-832.027c0.001-0.096 0.002-0.21 0.002-0.324 0-17.427-14.066-31.568-31.465-31.689h-0.012zM660.211 799.987h-94.316v-63.973h-94.316v63.973h-188.632v-63.973h-94.316v63.973h-94.316v-128h565.895v128zM660.211 576h-565.895v-544.013h565.895v544.067zM534.474 351.96h-314.422v96.040h314.422v-96.040zM534.474 159.987h-314.422v95.987h314.422v-95.987z" />
<glyph unicode="&#xe90c;" glyph-name="arrow" horiz-adv-x="629" d="M588.334 543.724l-370.991 381.914c-22.934 23.9-55.14 38.751-90.815 38.751s-67.881-14.851-90.774-38.707l-0.041-0.043c-23.221-24.207-37.519-57.13-37.519-93.392s14.298-69.185 37.564-93.439l-0.045 0.047 280.299-288.89-280.299-288.522c-23.221-24.207-37.519-57.13-37.519-93.392s14.298-69.185 37.564-93.439l-0.045 0.047c22.934-23.9 55.14-38.751 90.815-38.751s67.881 14.851 90.774 38.707l0.041 0.043 370.991 381.914c23.327 24.228 37.696 57.224 37.696 93.576s-14.369 69.348-37.737 93.619l0.041-0.043z" />
<glyph unicode="&#xe90d;" glyph-name="car" horiz-adv-x="1365" d="M1228.345 373.134c0.001 0.068 0.001 0.149 0.001 0.23 0 15.15-12.185 27.454-27.289 27.646h-172.164c-15.122-0.192-27.308-12.496-27.308-27.646 0-0.081 0-0.161 0.001-0.242v0.012-83.172c-0.001-0.068-0.001-0.149-0.001-0.23 0-15.161 12.178-27.478 27.287-27.702h172.167c15.129 0.224 27.308 12.541 27.308 27.702 0 0.081 0 0.162-0.001 0.243v-0.012 83.172zM1133.796 539.876l-0.163 0.016c1.349-0.159 2.721-0.241 4.112-0.241 19.166 0 34.702 15.537 34.702 34.702 0 6.295-1.676 12.199-4.518 17.121l-101.831 231.595-0.243 0.708c-12.47 31.98-40.312 56.27-75.135 63.918l-617.365-1.435c-34.122-7.51-61.96-31.777-74.689-64.442l-101.742-231.086c-2.939-5.090-4.62-10.997-4.62-17.297 0-19.134 15.511-34.645 34.645-34.645 1.416 0 2.813 0.085 4.019 0.234zM272.555 121.856v-116.338c0.001-0.154 0.002-0.335 0.002-0.517 0-37.875-30.463-68.634-68.223-69.114h-89.19c-37.806 0.481-68.269 31.24-68.269 69.115 0 0.182 0.001 0.364 0.002 0.545v-0.028 332.288c1.946 60.146 13.566 116.989 33.348 169.848l-1.206-3.675 10.866 27.022h-20.992c-37.799 0.449-68.269 31.195-68.269 69.059 0 0.182 0.001 0.363 0.002 0.544v-0.028 34.645c0.478 24.174 20.142 43.599 44.365 43.691h0.009c6.976 0.561 15.103 0.882 23.305 0.882 5.309 0 10.587-0.134 15.831-0.399l-0.736 0.030 56.263 0.626 75.89 162.93c19.115 47.388 75.492 114.972 125.724 114.972l682.724 1.479c50.233 0 106.61-67.641 125.668-115.143l75.89-163.1 56.32-0.626c4.461 0.222 9.687 0.349 14.943 0.349 8.255 0 16.437-0.313 24.534-0.927l-1.077 0.066c23.789-1.182 42.821-20.016 44.31-43.613l0.007-0.135v-34.702c0.002-0.204 0.003-0.446 0.003-0.688 0-37.875-30.463-68.635-68.225-69.114h-21.094l11.093-26.908c18.594-49.255 30.216-106.179 32.121-165.557l0.021-0.843v-332.8c0.002-0.204 0.003-0.446 0.003-0.687 0-37.864-30.47-68.611-68.228-69.058h-89.187c-37.806 0.48-68.27 31.24-68.27 69.115 0 0.222 0.001 0.444 0.003 0.665v-0.034 116.508zM336.441 261.518c15.122 0.192 27.308 12.496 27.308 27.646 0 0.081 0 0.161-0.001 0.242v-0.012 83.058c0.001 0.068 0.001 0.149 0.001 0.23 0 15.15-12.185 27.454-27.289 27.646h-172.221c-15.129-0.224-27.307-12.541-27.307-27.702 0-0.061 0-0.122 0.001-0.183v0.009-83.058c0-0.052-0.001-0.113-0.001-0.174 0-15.161 12.178-27.478 27.286-27.702h172.224z" />
<glyph unicode="&#xe90e;" glyph-name="star-empty" horiz-adv-x="1103" d="M551.385 960l181.957-322.166 369.428-69.317-257.575-267.815 47.262-364.702-341.071 155.963-341.071-155.963 47.262 364.702-257.575 267.815 369.428 69.317 181.957 322.166zM434.018 551.975l-240.246-44.898 166.991-174.080-29.932-237.095 221.342 101.612 221.342-101.612-29.932 237.095 166.991 174.080-240.246 44.898-118.154 209.526-118.154-209.526z" />
<glyph unicode="&#xe90f;" glyph-name="arrow-right" d="M512-64l-120.32 120.747 282.453 305.92h-674.133v170.667h674.133l-282.453 306.091 120.32 120.576 512-512z" />
<glyph unicode="&#xe910;" glyph-name="like-act" horiz-adv-x="1123" d="M561.493-64l-16.628 6.437c-240.884 93.623-501.175 307.2-539.697 573.879-4.084 21.536-6.419 46.309-6.419 71.627 0 96.83 34.165 185.681 91.099 255.155l-0.565-0.711c61.234 71.708 151.535 117.041 252.439 117.613h0.099c84.872-0.297 162.012-33.16 219.628-86.736l-0.2 0.184c57.409 53.404 134.554 86.27 219.372 86.552h0.056c100.988-0.574 191.273-45.908 252.104-117.152l0.385-0.462c56.374-68.747 90.543-157.585 90.543-254.403 0-25.333-2.339-50.119-6.814-74.155l0.385 2.488c-38.522-266.533-298.764-480.256-539.599-573.879z" />
<glyph unicode="&#xe911;" glyph-name="login" d="M512 960c0.89 0.006 1.942 0.009 2.996 0.009 93.326 0 180.647-25.716 255.262-70.447l-2.257 1.254c77.911-45.771 141.084-108.924 185.567-184.408l1.313-2.408c43.449-73.354 69.124-161.678 69.124-256s-25.675-182.646-70.418-258.366l1.293 2.366c-45.796-77.892-108.969-141.045-184.469-185.503l-2.411-1.313c-73.349-43.467-161.675-69.154-256-69.154s-182.65 25.687-258.363 70.447l2.363-1.293c-77.911 45.771-141.084 108.924-185.567 184.408l-1.313 2.408c-43.449 73.354-69.124 161.678-69.124 256s25.675 182.646 70.418 258.366l-1.293-2.366c45.796 77.892 108.969 141.045 184.469 185.503l2.411 1.313c72.358 43.477 159.678 69.193 253.004 69.193 1.053 0 2.105-0.003 3.157-0.010l-0.161 0.001zM512 860.928c-0.742 0.005-1.619 0.008-2.497 0.008-75.32 0-145.801-20.718-206.055-56.767l1.831 1.015c-62.734-36.94-113.582-87.89-149.342-148.771l-1.058-1.949c-34.998-58.513-55.691-129.075-55.691-204.47 0-1.061 0.004-2.121 0.012-3.181l-0.001 0.163c-0.006-0.81-0.009-1.767-0.009-2.725 0-75.735 21.439-146.462 58.579-206.445l-0.969 1.681c8.256 30.362 22.627 56.679 41.803 78.702l-0.203-0.238c23.141 25.905 53.063 45.292 86.984 55.402l1.336 0.342c-24.517 39.934-39.039 88.295-39.039 140.047 0 49.080 13.061 95.11 35.896 134.803l-0.697-1.314c23.028 40.395 55.605 72.972 94.764 95.349l1.236 0.651c38.274 22.073 84.176 35.095 133.12 35.095s94.846-13.022 134.431-35.791l-1.311 0.695c40.395-23.028 72.972-55.605 95.349-94.764l0.651-1.236c22.135-37.389 35.214-82.405 35.214-130.476 0-0.952-0.005-1.903-0.015-2.853l0.001 0.145c0.001-0.304 0.002-0.665 0.002-1.026 0-51.533-14.526-99.674-39.707-140.55l0.665 1.16c35.257-10.452 65.179-29.839 88.159-55.561l0.161-0.183c18.973-21.785 33.344-48.102 41.277-77.079l0.323-1.385c36.171 58.301 57.609 129.029 57.609 204.763 0 0.958-0.003 1.915-0.010 2.871l0.001-0.147c0.007 0.897 0.011 1.957 0.011 3.018 0 75.395-20.694 145.957-56.711 206.315l1.020-1.845c-36.819 62.83-87.667 113.781-148.466 149.664l-1.934 1.056c-58.448 35.073-128.967 55.815-204.331 55.815-0.84 0-1.679-0.003-2.518-0.008l0.129 0.001zM677.12 514.112c0.001 0.203 0.001 0.443 0.001 0.682 0 91.617-74.271 165.888-165.888 165.888s-165.888-74.271-165.888-165.888c0-91.617 74.271-165.888 165.888-165.888 45.782 0 87.232 18.546 117.248 48.535l-0.001-0.001c30.012 28.808 48.66 69.258 48.66 114.063 0 0.895-0.007 1.788-0.022 2.679l0.002-0.134zM247.68 130.112c35.065-28.951 75.756-52.755 119.945-69.429l2.935-0.971c42.079-15.698 90.699-24.783 141.44-24.783s99.36 9.085 144.32 25.716l-2.88-0.933c47.125 17.645 87.816 41.45 123.606 70.981l-0.726-0.581v57.6c-0.031 21.35-6.989 41.068-18.747 57.034l0.187-0.266c-11.833 16.741-29.168 28.911-49.332 33.924l-0.588 0.124-51.2 14.464c-40.725-27.166-90.793-43.35-144.64-43.35s-103.915 16.184-145.604 43.954l0.964-0.604-51.2-14.464c-20.752-5.137-38.087-17.307-49.741-33.781l-0.179-0.267c-11.571-15.7-18.529-35.418-18.56-56.761v-57.607z" />
<glyph unicode="&#xe912;" glyph-name="latter" horiz-adv-x="1303" d="M1209.795 53.008c-0.382-12.768-10.634-23.020-23.366-23.401l-0.036-0.001h-1070.094c-12.494 0.684-22.404 10.84-22.692 23.374l-0.001 0.028v558.094c15.054-17.729 31.308-33.533 48.945-47.683l0.695-0.539c104.244-80.133 209.197-160.975 309.895-245.363 50.928-53.938 119.299-90.922 196.059-101.906l1.792-0.21h1.418c78.508 11.363 146.833 48.309 197.708 101.965l0.142 0.151c100.698 84.388 205.651 165.23 309.186 245.363 18.752 14.52 35.253 30.346 49.954 47.742l0.395 0.479v-558.094zM1209.795 816.044c-12.234-73.483-51.228-136.166-106.431-178.929l-0.649-0.484c-97.152-75.878-194.305-153.175-291.457-229.762-38.294-31.202-107.789-97.861-158.848-97.861h-1.418c-51.058 0-120.554 66.659-159.557 97.861-96.443 76.587-193.596 153.884-291.457 229.762-63.558 47.499-104.707 121.957-106.367 206.097l-0.004 0.263c0.032 12.664 10.089 22.97 22.653 23.401l0.039 0.001h1070.094c27.657 0 23.402-31.911 23.402-50.349zM1302.692 842.992c-0.281 64.117-52.182 116.019-116.272 116.299h-1070.121c-64.117-0.281-116.019-52.182-116.299-116.272v-790.010c0.281-64.117 52.182-116.019 116.272-116.299h1070.121c64.117 0.281 116.019 52.182 116.299 116.272v790.010z" />
<glyph unicode="&#xe913;" glyph-name="like" horiz-adv-x="1123" d="M561.493-64l-16.628 6.437c-240.884 93.623-501.175 307.2-539.697 573.879-4.084 21.536-6.419 46.309-6.419 71.627 0 96.83 34.165 185.681 91.099 255.155l-0.565-0.711c61.234 71.708 151.535 117.041 252.439 117.613h0.099c84.872-0.297 162.012-33.16 219.628-86.736l-0.2 0.184c57.409 53.404 134.554 86.27 219.372 86.552h0.056c100.988-0.574 191.273-45.908 252.104-117.152l0.385-0.462c56.374-68.747 90.543-157.585 90.543-254.403 0-25.333-2.339-50.119-6.814-74.155l0.385 2.488c-38.522-266.533-298.764-480.256-539.599-573.879zM342.065 867.352c-73.13-0.574-138.453-33.515-182.427-85.186l-0.284-0.342c-42.349-52.711-67.969-120.434-67.969-194.14 0-20.428 1.968-40.396 5.725-59.726l-0.318 1.962c32.134-222.11 260.242-409.259 464.945-493.909 204.8 84.651 432.713 271.799 464.847 493.909 3.448 17.383 5.42 37.369 5.42 57.816 0 73.692-25.626 141.398-68.453 194.694l0.471-0.606c-43.513 52.385-108.667 85.495-181.555 85.495-75.088 0-141.968-35.139-185.095-89.869l-0.381-0.502-35.255-41.984-35.255 41.984c-43.708 54.573-110.016 89.477-184.508 90.403l-0.154 0.002z" />
<glyph unicode="&#xe914;" glyph-name="quote" horiz-adv-x="1259" d="M491.447 959.738c-39.062-24.119-87.588-54.792-145.552-92.805-61.964-41.136-115.85-86.586-164.054-137.472l-0.399-0.425c-49.511-52.313-92.26-111.792-126.366-176.533l-2.093-4.358c-33.376-63.337-52.966-138.413-52.966-218.064 0-2.047 0.013-4.090 0.039-6.131l-0.003 0.31q0-174.206 69.944-281.036t232.537-106.962c2.971-0.154 6.45-0.242 9.95-0.242 61.076 0 115.898 26.777 153.368 69.231l0.192 0.221c36.187 39.063 58.666 91.279 59.535 148.734l0.002 0.174c0.316 4.335 0.496 9.391 0.496 14.49 0 61.206-25.965 116.348-67.482 155.010l-0.128 0.118c-45.922 36.243-104.635 58.135-168.46 58.135-5.572 0-11.105-0.167-16.594-0.496l0.755 0.036h-90.734c5.394 59.091 19.48 113.503 41.029 163.967l-1.338-3.525c21.58 45.814 48.799 85.106 81.423 119.182l-0.153-0.161c33.062 36.166 69.606 68.182 109.394 95.86l2.129 1.402q54.818 36.965 143.664 88.086zM1190.891 959.738c-39.088-24.119-87.614-54.792-145.578-92.805-61.958-41.152-115.842-86.6-164.058-137.475l-0.396-0.421c-49.522-52.308-92.272-111.789-126.369-176.536l-2.090-4.355c-33.377-63.313-52.967-138.364-52.967-217.99 0-2.073 0.013-4.142 0.040-6.209l-0.003 0.313q0-174.206 69.944-281.036t232.51-106.962c2.971-0.154 6.45-0.242 9.95-0.242 61.076 0 115.898 26.777 153.368 69.231l0.192 0.221c36.187 39.063 58.666 91.279 59.535 148.734l0.002 0.174c0.316 4.332 0.495 9.385 0.495 14.481 0 61.204-25.954 116.346-67.456 155.021l-0.127 0.117c-45.928 36.244-104.647 58.135-168.479 58.135-5.575 0-11.11-0.167-16.602-0.496l0.756 0.036h-90.734c5.37 58.788 19.115 112.936 40.098 163.313l-1.35-3.658c21.67 46.185 49.231 85.762 82.348 119.919l-0.108-0.112c33.062 36.166 69.606 68.182 109.394 95.86l2.129 1.402q54.818 36.965 143.664 88.086z" />
<glyph unicode="&#xe915;" glyph-name="star" horiz-adv-x="1085" d="M873.766-64.502c3.24 0.011 6.348 0.562 9.244 1.568l-0.2-0.060c3.355 1.102 6.18 2.292 8.888 3.678l-0.346-0.161c4.508 3.447 7.973 8.045 9.98 13.359l0.069 0.208c1.593 3.329 2.523 7.235 2.523 11.359 0 1.848-0.187 3.652-0.543 5.395l0.029-0.173-57.28 346.19 230.124 230.626c3.893 3.702 6.722 8.49 8.001 13.878l0.038 0.191c0.433 1.888 0.682 4.056 0.682 6.282 0 3.512-0.618 6.879-1.751 10l0.065-0.204c-1.495 5.554-4.69 10.217-8.985 13.523l-0.059 0.044c-3.977 3.493-8.922 5.977-14.382 7.005l-0.189 0.030-346.693 57.782-143.702 287.403c-2.497 5.218-6.275 9.479-10.935 12.49l-0.118 0.072c-4.578 2.839-10.132 4.521-16.079 4.521s-11.5-1.682-16.211-4.597l0.132 0.076c-4.892-2.951-8.708-7.252-10.985-12.387l-0.069-0.174-143.702-287.403-346.693-57.782c-5.649-1.057-10.594-3.542-14.606-7.064l0.034 0.030c-6.55-5.749-10.662-14.138-10.662-23.488 0-2.179 0.223-4.306 0.648-6.359l-0.035 0.202c1.318-5.579 4.146-10.366 8.027-14.058l0.012-0.011 230.124-230.626-57.782-346.19c-0.136-1.19-0.214-2.57-0.214-3.968 0-4.526 0.815-8.862 2.307-12.868l-0.083 0.255c2.445-5.449 6.030-10.001 10.477-13.509l0.075-0.057c4.436-2.812 9.758-4.631 15.473-5.019l0.103-0.006c0.822-0.092 1.775-0.144 2.74-0.144 4.922 0 9.526 1.361 13.456 3.727l-0.118-0.066 317.551 172.844 317.551-172.844c4.083-2.167 8.919-3.462 14.051-3.517h0.017z" />
<glyph unicode="&#xe916;" glyph-name="wave" horiz-adv-x="9830" d="M9830.4 468.48c-163.84 0-307.2 61.44-450.56 184.32-491.52 409.6-1064.96 409.6-1556.48 0-307.2-245.76-614.4-245.76-901.12 0-491.52 409.6-1064.96 409.6-1556.48 0-307.2-245.76-614.4-245.76-901.12 0-491.52 409.6-1064.96 409.6-1556.48 0-307.2-245.76-614.4-245.76-901.12 0-491.52 409.6-1064.96 409.6-1556.48 0-143.36-122.88-225.28-204.8-450.56-204.8v-512h40.96c409.6 0 614.4 184.32 757.76 307.2 307.2 245.76 614.4 245.76 901.12 0 491.52-409.6 1064.96-409.6 1556.48 0 307.2 245.76 614.4 225.28 901.12 0 491.52-409.6 1064.96-409.6 1556.48 0 307.2 245.76 614.4 245.76 901.12 0 491.52-409.6 1064.96-409.6 1556.48 0 307.2 245.76 614.4 245.76 901.12 0 225.28-204.8 491.52-307.2 757.76-307.2v532.48z" />
<glyph unicode="&#xe917;" glyph-name="jet-sky" horiz-adv-x="3072" d="M7.314-64c73.143 0 109.714 32.914 135.314 54.857 54.857 47.543 109.714 47.543 160.914 0 87.771-73.143 190.171-73.143 277.943 0 54.857 47.543 109.714 40.229 160.914 0 87.771-73.143 190.171-73.143 277.943 0 54.857 47.543 109.714 47.543 160.914 0 87.771-73.143 190.171-73.143 277.943 0 54.857 47.543 109.714 47.543 160.914 0 87.771-73.143 190.171-73.143 277.943 0 54.857 47.543 109.714 47.543 160.914 0 87.771-73.143 190.171-73.143 277.943 0 54.857 47.543 109.714 47.543 160.914 0 87.771-73.143 190.171-73.143 277.943 0 54.857 47.543 109.714 47.543 160.914 0 32.914-21.943 69.486-54.857 135.314-54.857v91.429c-36.571 0-54.857 14.629-80.457 36.571-87.771 73.143-190.171 73.143-277.943 0-54.857-47.543-109.714-47.543-160.914 0-87.771 73.143-190.171 73.143-277.943 0-54.857-47.543-109.714-47.543-160.914 0-87.771 73.143-190.171 73.143-277.943 0-54.857-47.543-109.714-40.229-160.914 0-87.771 73.143-190.171 73.143-277.943 0-54.857-47.543-109.714-47.543-160.914 0-87.771 73.143-190.171 73.143-277.943 0-54.857-47.543-109.714-47.543-160.914 0-87.771 73.143-190.171 73.143-277.943 0-54.857-47.543-109.714-47.543-160.914 0-87.771 73.143-190.171 73.143-277.943 0-25.6-21.943-40.229-36.571-80.457-36.571v-91.429h7.314zM1477.486 853.943l40.229-171.886 124.343 106.057-95.086 117.029-36.571 54.857-149.943-109.714 36.571-54.857 80.457 58.514zM1214.171 711.314l-409.6 98.743-14.629-142.629 420.571-36.571 3.657 80.457zM2146.743 663.771l-424.229 87.771-106.057-87.771h530.286zM2245.486 645.486v-32.914h-687.543l-186.514-40.229-610.743 14.629-190.171-149.943 2135.771 113.371-460.8 95.086zM464.457 352.914l73.143-171.886c40.229 18.286 80.457 32.914 128 32.914 62.171 0 128-21.943 182.857-69.486 14.629-14.629 25.6-18.286 36.571-18.286 7.314 0 21.943 3.657 36.571 18.286 54.857 47.543 117.029 69.486 182.857 69.486 62.171 0 128-21.943 182.857-69.486 14.629-14.629 25.6-18.286 36.571-18.286 7.314 0 21.943 3.657 36.571 18.286 54.857 47.543 117.029 69.486 182.857 69.486 62.171 0 128-21.943 182.857-69.486 14.629-14.629 25.6-18.286 36.571-18.286 7.314 0 21.943 10.971 36.571 18.286 54.857 47.543 117.029 69.486 182.857 69.486s128-21.943 182.857-69.486c14.629-14.629 25.6-18.286 36.571-18.286 7.314 0 21.943 3.657 36.571 18.286 54.857 47.543 117.029 69.486 182.857 69.486 51.2 0 98.743-14.629 142.629-47.543l292.571 310.857-2391.771-124.343z" />
<glyph unicode="&#xe918;" glyph-name="canoe" horiz-adv-x="2775" d="M6.606-64c66.065 0 99.097 29.729 122.219 49.548 49.548 42.942 99.097 42.942 145.342 0 79.277-66.065 171.768-66.065 251.045 0 49.548 42.942 99.097 36.335 145.342 0 79.277-66.065 171.768-66.065 251.045 0 49.548 42.942 99.097 42.942 145.342 0 79.277-66.065 171.768-66.065 251.045 0 49.548 42.942 99.097 42.942 145.342 0 79.277-66.065 171.768-66.065 251.045 0 49.548 42.942 99.097 42.942 145.342 0 79.277-66.065 171.768-66.065 251.045 0 49.548 42.942 99.097 42.942 145.342 0 79.277-66.065 171.768-66.065 251.045 0 49.548 42.942 99.097 42.942 145.342 0 29.729-19.819 62.761-49.548 122.219-49.548v82.581c-33.032 0-49.548 13.213-72.671 33.032-79.277 66.065-171.768 66.065-251.045 0-49.548-42.942-99.097-42.942-145.342 0-79.277 66.065-171.768 66.065-251.045 0-49.548-42.942-99.097-42.942-145.342 0-79.277 66.065-171.768 66.065-251.045 0-49.548-42.942-99.097-36.335-145.342 0-79.277 66.065-171.768 66.065-251.045 0-49.548-42.942-99.097-42.942-145.342 0-79.277 66.065-171.768 66.065-251.045 0-49.548-42.942-99.097-42.942-145.342 0-79.277 66.065-171.768 66.065-251.045 0-49.548-42.942-99.097-42.942-145.342 0-79.277 66.065-171.768 66.065-251.045 0-23.123-19.819-36.335-33.032-72.671-33.032v-82.581h6.606zM492.181 636.284c46.245 0 82.581 36.335 82.581 82.581s-36.335 82.581-82.581 82.581c-46.245 0-82.581-36.335-82.581-82.581 0-42.942 36.335-82.581 82.581-82.581zM2322.168 381.935h-1311.381l138.735-251.045 3.303-9.91c3.303-3.303 13.213-9.91 16.516-13.213 6.606-9.91 16.516-13.213 23.123-13.213 3.303 0 16.516 3.303 23.123 13.213 52.852 42.942 112.31 66.065 171.768 66.065s118.916-26.426 171.768-66.065c3.303-3.303 16.516-13.213 23.123-13.213s19.819 9.91 23.123 13.213c52.852 42.942 112.31 66.065 171.768 66.065 62.761 0 118.916-26.426 171.768-66.065 6.606-9.91 16.516-13.213 23.123-13.213 3.303 0 16.516 3.303 23.123 13.213 52.852 42.942 112.31 66.065 171.768 66.065s118.916-26.426 171.768-66.065c6.606-9.91 16.516-13.213 23.123-13.213 6.606 3.303 16.516 9.91 23.123 13.213 13.213 13.213 23.123 19.819 36.335 29.729 62.761 49.548 99.097 125.523 102.4 214.71l3.303 135.432-204.8-105.703zM571.458 933.574l201.497-356.748h-284.077c-56.155 0-102.4-46.245-102.4-105.703v-6.606c0-3.303 0-3.303 3.303-9.91l46.245-72.671h-158.555l-231.226 92.49v-125.523c0-75.974 29.729-145.342 79.277-198.194 29.729 13.213 52.852 16.516 82.581 16.516 62.761 0 118.916-26.426 171.768-66.065 6.606-9.91 19.819-13.213 23.123-13.213s16.516 3.303 23.123 13.213c52.852 42.942 112.31 66.065 171.768 66.065 62.761 0 118.916-26.426 171.768-66.065 6.606-9.91 16.516-13.213 23.123-13.213 3.303 0 16.516 3.303 23.123 13.213 36.335 33.032 79.277 56.155 118.916 62.761l-109.006 218.013h-178.374l-49.548 82.581h237.832l165.161-290.684c19.819 0 39.639-3.303 62.761-9.91l-449.239 796.077-42.942-26.426z" />
<glyph unicode="&#xe919;" glyph-name="dinghy" horiz-adv-x="3186" d="M7.585-64c75.852 0 113.778 34.133 140.326 56.889 56.889 49.304 113.778 49.304 166.874 0 91.022-75.852 197.215-75.852 288.237 0 56.889 49.304 113.778 41.719 166.874 0 91.022-75.852 197.215-75.852 288.237 0 56.889 49.304 113.778 49.304 166.874 0 91.022-75.852 197.215-75.852 288.237 0 56.889 49.304 113.778 49.304 166.874 0 91.022-75.852 197.215-75.852 288.237 0 56.889 49.304 113.778 49.304 166.874 0 91.022-75.852 197.215-75.852 288.237 0 56.889 49.304 113.778 49.304 166.874 0 91.022-75.852 197.215-75.852 288.237 0 56.889 49.304 113.778 49.304 166.874 0 34.133-22.756 72.059-56.889 140.326-56.889v94.815c-37.926 0-56.889 15.17-83.437 37.926-91.022 75.852-197.215 75.852-288.237 0-56.889-49.304-113.778-49.304-166.874 0-91.022 75.852-197.215 75.852-288.237 0-56.889-49.304-113.778-49.304-166.874 0-91.022 75.852-197.215 75.852-288.237 0-56.889-49.304-113.778-41.719-166.874 0-91.022 75.852-197.215 75.852-288.237 0-56.889-49.304-113.778-49.304-166.874 0-91.022 75.852-197.215 75.852-288.237 0-56.889-49.304-113.778-49.304-166.874 0-91.022 75.852-197.215 75.852-288.237 0-56.889-49.304-113.778-49.304-166.874 0-91.022 75.852-197.215 75.852-288.237 0-26.548-22.756-41.719-37.926-83.437-37.926v-94.815h7.585zM1202.252 201.481c45.511-7.585 98.607-34.133 140.326-72.059 7.585-7.585 18.963-15.17 26.548-15.17 3.793 0 18.963 3.793 26.548 15.17 60.681 45.511 128.948 75.852 197.215 75.852 72.059 0 136.533-26.548 197.215-75.852 3.793-3.793 18.963-15.17 26.548-15.17s22.756 7.585 26.548 15.17c60.681 45.511 128.948 75.852 197.215 75.852 72.059 0 136.533-26.548 197.215-75.852 7.585-7.585 18.963-15.17 26.548-15.17 3.793 0 18.963 3.793 26.548 15.17 60.681 45.511 128.948 75.852 197.215 75.852 18.963 0 37.926 0 64.474-3.793l178.252 189.63c-132.741-60.681-273.067-98.607-420.978-109.985l-1107.437-79.644zM891.259 129.422c7.585-7.585 18.963-15.17 26.548-15.17 3.793 0 15.17 3.793 26.548 15.17 34.133 26.548 72.059 45.511 109.985 60.681l-231.348-18.963c22.756-7.585 41.719-22.756 68.267-41.719zM1024 770.37c53.096 0 94.815 41.719 94.815 94.815s-45.511 94.815-94.815 94.815-94.815-41.719-94.815-94.815c0-53.096 41.719-94.815 94.815-94.815zM2886.163 694.519c-34.133 56.889-102.4 72.059-159.289 37.926-128.948-79.644-269.274-128.948-420.978-136.533l-1111.23-79.644-64.474 121.363c-18.963 37.926-56.889 64.474-102.4 64.474-64.474 0-121.363-53.096-117.57-117.57 0-15.17 45.511-83.437 45.511-83.437l-432.356-34.133c-60.681-3.793-113.778-60.681-109.985-128.948 3.793-64.474 60.681-113.778 128.948-109.985l1778.726 128.948c189.63 15.17 367.881 75.852 530.963 174.459 53.096 37.926 68.267 106.193 34.133 163.081zM326.163 345.6c-7.585 102.4 72.059 193.422 174.459 208.593l284.444 18.963-79.644 147.911c-15.17 26.548-45.511 41.719-79.644 41.719l-322.37-15.17c-41.719-3.793-79.644-37.926-79.644-83.437v-451.319h15.17c56.889 0 117.57-18.963 170.667-56.889l-3.793 56.889c-45.511 26.548-75.852 75.852-79.644 132.741z" />
<glyph unicode="&#xe91a;" glyph-name="yacht" horiz-adv-x="2775" d="M6.606-64c66.065 0 99.097 29.729 122.219 49.548 49.548 42.942 99.097 42.942 145.342 0 79.277-66.065 171.768-66.065 251.045 0 49.548 42.942 99.097 36.335 145.342 0 79.277-66.065 171.768-66.065 251.045 0 49.548 42.942 99.097 42.942 145.342 0 79.277-66.065 171.768-66.065 251.045 0 49.548 42.942 99.097 42.942 145.342 0 79.277-66.065 171.768-66.065 251.045 0 49.548 42.942 99.097 42.942 145.342 0 79.277-66.065 171.768-66.065 251.045 0 49.548 42.942 99.097 42.942 145.342 0 79.277-66.065 171.768-66.065 251.045 0 49.548 42.942 99.097 42.942 145.342 0 29.729-19.819 62.761-49.548 122.219-49.548v82.581c-33.032 0-49.548 13.213-72.671 33.032-79.277 66.065-171.768 66.065-251.045 0-49.548-42.942-99.097-42.942-145.342 0-79.277 66.065-171.768 66.065-251.045 0-49.548-42.942-99.097-42.942-145.342 0-79.277 66.065-171.768 66.065-251.045 0-49.548-42.942-99.097-36.335-145.342 0-79.277 66.065-171.768 66.065-251.045 0-49.548-42.942-99.097-42.942-145.342 0-79.277 66.065-171.768 66.065-251.045 0-49.548-42.942-99.097-42.942-145.342 0-79.277 66.065-171.768 66.065-251.045 0-49.548-42.942-99.097-42.942-145.342 0-79.277 66.065-171.768 66.065-251.045 0-23.123-19.819-36.335-33.032-72.671-33.032v-82.581h6.606zM918.297 960h-214.71v-112.31h214.71v112.31zM1090.065 732.077h270.865l-23.123 82.581h-343.535l-36.335-36.335h-251.045l-26.426-82.581 366.658-3.303 42.942 39.639zM1532.697 477.729h416.206l-85.884 62.761h-581.368l79.277 79.277h383.174l-69.368 49.548h-561.548l-39.639-39.639-445.935 3.303-66.065-75.974h545.032l79.277-79.277h-654.039v-89.187h845.626l155.252 89.187zM1555.819 398.452l-155.252-89.187h-951.329l-115.613-168.465c13.213-9.91 29.729-19.819 46.245-33.032 6.606-9.91 19.819-13.213 23.123-13.213s16.516 3.303 23.123 13.213c52.852 42.942 112.31 66.065 171.768 66.065 62.761 0 118.916-26.426 171.768-66.065 6.606-9.91 16.516-13.213 23.123-13.213 3.303 0 16.516 3.303 23.123 13.213 52.852 42.942 112.31 66.065 171.768 66.065 62.761 0 118.916-26.426 171.768-66.065 6.606-9.91 16.516-13.213 23.123-13.213 3.303 0 16.516 3.303 23.123 13.213 52.852 42.942 112.31 66.065 171.768 66.065 62.761 0 118.916-26.426 171.768-66.065 3.303-3.303 16.516-13.213 23.123-13.213s19.819 9.91 23.123 13.213c52.852 42.942 112.31 66.065 171.768 66.065 62.761 0 118.916-26.426 171.768-66.065 3.303 0 6.606-3.303 6.606-9.91l531.819 300.594h-921.6z" />
<glyph unicode="&#xe91b;" glyph-name="sailboat" horiz-adv-x="1365" d="M3.251-64c32.508 0 48.762 14.629 60.14 24.381 24.381 21.13 48.762 21.13 71.517 0 39.010-32.508 84.521-32.508 123.53 0 24.381 21.13 48.762 17.879 71.517 0 39.010-32.508 84.521-32.508 123.53 0 24.381 21.13 48.762 21.13 71.517 0 39.010-32.508 84.521-32.508 123.53 0 24.381 21.13 48.762 21.13 71.517 0 39.010-32.508 84.521-32.508 123.53 0 24.381 21.13 48.762 21.13 71.517 0 39.010-32.508 84.521-32.508 123.53 0 24.381 21.13 48.762 21.13 71.517 0 39.010-32.508 84.521-32.508 123.53 0 24.381 21.13 48.762 21.13 71.517 0 14.629-9.752 30.883-24.381 60.14-24.381v40.635c-16.254 0-24.381 6.502-35.759 16.254-39.010 32.508-84.521 32.508-123.53 0-24.381-21.13-48.762-21.13-71.517 0-39.010 32.508-84.521 32.508-123.53 0-24.381-21.13-48.762-21.13-71.517 0-39.010 32.508-84.521 32.508-123.53 0-24.381-21.13-48.762-17.879-71.517 0-39.010 32.508-84.521 32.508-123.53 0-24.381-21.13-48.762-21.13-71.517 0-39.010 32.508-84.521 32.508-123.53 0-24.381-21.13-48.762-21.13-71.517 0-39.010 32.508-84.521 32.508-123.53 0-24.381-21.13-48.762-21.13-71.517 0-39.010 32.508-84.521 32.508-123.53 0-11.378-9.752-17.879-16.254-35.759-16.254v-40.635h3.251zM765.562 161.93l-76.394-42.26h-468.114l-58.514-84.521c6.502-4.876 14.629-9.752 22.756-16.254 3.251-1.625 9.752-6.502 14.629-6.502 6.502 0 9.752 1.625 14.629 6.502 24.381 22.756 52.013 32.508 82.895 32.508 27.632 0 58.514-13.003 82.895-32.508 3.251-1.625 9.752-6.502 14.629-6.502 6.502 0 9.752 1.625 14.629 6.502 24.381 22.756 52.013 32.508 82.895 32.508 27.632 0 58.514-13.003 82.895-32.508 3.251-1.625 9.752-6.502 14.629-6.502 6.502 0 9.752 1.625 14.629 6.502 24.381 22.756 52.013 32.508 82.895 32.508 27.632 0 58.514-13.003 82.895-32.508 3.251-1.625 9.752-6.502 14.629-6.502 6.502 0 9.752 4.876 14.629 6.502 24.381 22.756 52.013 32.508 82.895 32.508 27.632 0 58.514-13.003 82.895-32.508 1.625-1.625 3.251-4.876 3.251-1.625l250.311 144.66h-453.486zM749.308 186.311l6.502 4.876h206.425l-42.26 30.883h-263.314l-60.14-42.26h-274.692l-32.508-32.508h386.844l73.143 39.010zM567.263 209.067h16.254v750.933h-16.254v-612.775h-264.94v-21.13h266.565v-117.029zM533.13 906.362l-204.8-528.254h204.8v528.254zM614.4 927.492v-666.413h487.619l-487.619 666.413z" />
<glyph unicode="&#xe91c;" glyph-name="quote1" horiz-adv-x="1489" d="M239.057 2.374l36.259-66.467c136.052 58.694 238.359 140.102 307.014 244.271 68.701 104.215 103.005 219.183 103.005 344.948 0 57.484-7.633 113.478-22.9 167.936-15.267 54.551-36.212 100.352-62.929 137.449-58.461 86.249-151.273 129.35-278.435 129.35-92.765 0-169.379-26.298-229.795-79.034-60.369-52.689-90.577-120.972-90.577-204.847 0-88.576 28.625-158.068 85.83-208.337 57.204-50.316 131.584-75.45 223.139-75.45 91.508 0 167.145 29.37 226.909 88.017 6.377-17.967 9.542-40.681 9.542-68.282 0-23.924-3.165-52.643-9.542-86.202-11.45-63.488-45.103-125.766-101.050-186.833-55.948-61.114-121.437-106.589-196.468-136.518v0zM1043.875 2.374l36.212-66.467c136.052 58.694 238.406 140.102 307.060 244.271 68.608 104.215 102.959 219.183 102.959 344.948 0 57.484-7.633 113.478-22.9 167.936-15.22 54.551-36.212 100.352-62.929 137.449-58.461 86.249-151.273 129.35-278.435 129.35-92.765 0-169.379-26.298-229.795-79.034-60.369-52.689-90.577-120.972-90.577-204.847 0-88.576 28.625-158.068 85.83-208.337 57.204-50.316 131.584-75.45 223.139-75.45 91.508 0 167.191 29.37 226.909 88.017 6.377-17.967 9.542-40.681 9.542-68.282 0-23.924-3.165-52.643-9.542-86.202-11.45-63.488-45.103-125.766-101.050-186.833-55.948-61.114-121.391-106.589-196.422-136.518v0z" />
<glyph unicode="&#xe91d;" glyph-name="cart1" horiz-adv-x="847" d="M847.484-63.788h-847.519l0.035 776.616h176.552c0 136.51 110.663 247.172 247.172 247.172s247.172-110.663 247.172-247.172h176.552l0.035-776.616zM423.724 889.379c-97.492 0-176.552-79.025-176.552-176.552h353.103c0 97.527-79.060 176.552-176.552 176.552z" />
<glyph unicode="&#xe91e;" glyph-name="arrow-left" horiz-adv-x="1451" d="M1450.667 362.667h-1109.333l298.667-298.667-128-128-512 512 512 512 128-128-298.667-298.667h1109.333v-170.667z" />
<glyph unicode="&#xe91f;" glyph-name="arrow-right1" horiz-adv-x="1451" d="M938.667-64l-128 128 298.667 298.667h-1109.333v170.667h1109.333l-298.667 298.667 128 128 512-512-512-512z" />
<glyph unicode="&#xe920;" glyph-name="add-to-compare" horiz-adv-x="1489" d="M1303.273 587.636v-186.182h-186.182v186.182h-186.182v186.182h186.182v186.182h186.182v-186.182h186.182v-186.182h-186.182zM791.273 769.164c-15.639 1.303-30.627 4.655-46.545 4.655-308.503 0-558.545-250.042-558.545-558.545 0-31.93 3.724-62.743 9.123-93.091h190.185c19.084-73.542 59.764-137.588 115.247-186.182h-446.092c-35.002 86.295-54.644 180.503-54.644 279.273 0 411.369 333.452 744.727 744.727 744.727 81.361 0 159.465-13.498 232.727-37.609v-8.937h-186.182v-144.291zM465.455 680.727l262.144-329.263c5.865 0.745 11.078 3.444 17.129 3.444 77.079 0 139.636-62.464 139.636-139.636 0-77.079-62.557-139.636-139.636-139.636-77.172 0-139.636 62.557-139.636 139.636 0 14.057 4.096 26.81 8.006 39.657l-147.642 425.798zM1294.057 122.182c5.399 30.348 9.216 61.161 9.216 93.091 0 16.012-3.444 30.999-4.748 46.545h144.384v210.665c29.603-80.244 46.545-166.633 46.545-257.21 0-98.769-19.735-192.977-54.644-279.273h-446.185c55.575 48.593 96.256 112.64 115.247 186.182h190.185z" />
<glyph unicode="&#xe921;" glyph-name="camera" horiz-adv-x="1103" d="M945.231-64h-787.692c-87.040 0-157.538 70.498-157.538 157.538v551.385c0 87.040 70.498 157.538 157.538 157.538h90.663l39.463 92.869c15.911 37.494 53.484 64.67 85.622 64.67h349.026c32.138 0 69.711-27.175 85.622-64.67l39.385-92.869h97.91c87.040 0 157.538-70.498 157.538-157.538v-551.385c0-87.040-70.498-157.538-157.538-157.538zM984.615 625.94c0 33.398-26.466 60.574-59.077 60.574l-162.028-0.315-44.347 105.945c-11.894 28.83-40.094 49.703-64.197 49.703h-212.598c-24.103 0-52.224-20.874-64.197-49.703l-44.268-105.945-156.672 0.315c-32.61 0-59.077-27.175-59.077-60.574v-511.212c0-33.477 26.466-60.574 59.077-60.574h748.308c32.61 0 59.077 27.097 59.077 60.574v511.212zM551.385 172.308c-130.521 0-236.308 105.787-236.308 236.308s105.787 236.308 236.308 236.308c130.521 0 236.308-105.787 236.308-236.308s-105.787-236.308-236.308-236.308zM551.385 566.154c-87.040 0-157.538-70.498-157.538-157.538s70.498-157.538 157.538-157.538c86.961 0 157.538 70.498 157.538 157.538s-70.577 157.538-157.538 157.538z" />
<glyph unicode="&#xe922;" glyph-name="remove-from-compare" horiz-adv-x="1489" d="M930.909 587.636v186.182h558.545v-186.182h-558.545zM791.273 769.164c-15.639 1.303-30.627 4.655-46.545 4.655-308.503 0-558.545-250.042-558.545-558.545 0-31.93 3.724-62.743 9.123-93.091h190.185c19.084-73.542 59.764-137.588 115.247-186.182h-446.092c-35.002 86.295-54.644 180.503-54.644 279.273 0 411.369 333.452 744.727 744.727 744.727 93.463 0 182.644-17.967 265.123-49.431h-218.577v-141.405zM465.455 680.727l262.144-329.263c5.865 0.745 11.078 3.444 17.129 3.444 77.079 0 139.636-62.464 139.636-139.636 0-77.079-62.557-139.636-139.636-139.636-77.172 0-139.636 62.557-139.636 139.636 0 14.057 4.096 26.81 8.006 39.657l-147.642 425.798zM1294.057 122.182c5.399 30.348 9.216 61.161 9.216 93.091 0 82.199-18.804 159.558-50.641 229.841h200.239c23.552-72.425 36.585-149.597 36.585-229.841 0-98.769-19.735-192.977-54.644-279.273h-446.185c55.575 48.593 96.256 112.64 115.247 186.182h190.185z" />
<glyph unicode="&#xe923;" glyph-name="movie" horiz-adv-x="1195" d="M1109.333-64v85.333h-85.333v-85.333h-853.333v85.333h-85.333v-85.333c-47.104 0-85.333 38.229-85.333 85.333v853.333c0 47.104 38.229 85.333 85.333 85.333h1024c47.104 0 85.333-38.229 85.333-85.333v-853.333c0-47.104-38.229-85.333-85.333-85.333zM170.667 874.667h-85.333v-85.333h85.333v85.333zM170.667 704h-85.333v-85.333h85.333v85.333zM170.667 533.333h-85.333v-85.333h85.333v85.333zM170.667 362.667h-85.333v-85.333h85.333v85.333zM170.667 192h-85.333v-85.333h85.333v85.333zM938.667 874.667h-682.667v-853.333h682.667v853.333zM1109.333 874.667h-85.333v-85.333h85.333v85.333zM1109.333 704h-85.333v-85.333h85.333v85.333zM1109.333 533.333h-85.333v-85.333h85.333v85.333zM1109.333 362.667h-85.333v-85.333h85.333v85.333zM1109.333 192h-85.333v-85.333h85.333v85.333zM426.667 192v512l426.667-256-426.667-256z" />
<glyph unicode="&#xe924;" glyph-name="pin" horiz-adv-x="768" d="M384 959.147c-212.48 0-384.683-173.483-384.683-387.413 0-311.552 384.683-635.477 384.683-635.477s384.683 323.925 384.683 635.477c0 213.931-172.203 387.413-384.683 387.413zM383.915 758.357c102.4 0 185.429-83.627 185.429-186.795s-83.029-186.795-185.429-186.795c-102.485 0-185.515 83.627-185.515 186.795s83.029 186.795 185.515 186.795z" />
<glyph unicode="&#xe925;" glyph-name="calendar" d="M0-64v1024h170.667v-85.248h170.667v85.248h341.333v-85.248h170.667v85.248h170.667v-1024h-1024zM938.667 704h-853.333v-682.667h853.333v682.667zM357.291 418.645h-101.291v114.688h101.291v-114.688zM357.291 192h-101.291v114.688h101.291v-114.688zM562.688 418.645h-101.376v114.688h101.376v-114.688zM562.688 192h-101.376v114.688h101.376v-114.688zM768 418.645h-101.376v114.688h101.376v-114.688zM768 192h-101.376v114.688h101.376v-114.688z" />
<glyph unicode="&#xe926;" glyph-name="dimensions" d="M512-64c-282.766 0-512 229.234-512 512s229.234 512 512 512c282.766 0 512-229.234 512-512s-229.234-512-512-512zM512 874.667c-235.634 0-426.667-191.033-426.667-426.667s191.033-426.667 426.667-426.667c235.634 0 426.667 191.033 426.667 426.667s-191.033 426.667-426.667 426.667zM786.148 408.235v0l-120.69-120.661-40.22 40.22 91.79 91.762h-410.823l92.217-92.245-40.22-40.22-160.91 160.91 160.91 160.91 40.22-40.22-92.217-92.245h411.733l-92.7 92.7 40.22 40.22 160.91-160.91-40.22-40.22z" />
<glyph unicode="&#xe927;" glyph-name="fan" d="M1003.008 101.461c-27.25-46.507-78.080-75.406-132.636-75.406 0 0 0 0 0 0-26.709 0-53.134 6.997-76.373 20.224-48.213 27.42-165.319 130.361-213.39 215.239-21.561-11.008-45.568-16.782-70.030-16.782-22.812 0-45.34 5.063-65.792 14.734-45.71-82.603-164.523-189.326-214.926-217.998-23.239-13.227-49.664-20.224-76.373-20.224-54.556 0-105.387 28.871-132.636 75.378-20.452 34.873-25.856 75.492-15.303 114.375 10.581 38.912 35.925 71.396 71.31 91.534 50.972 28.985 189.013 71.509 282.596 74.297-0.711 5.916-1.081 11.861-1.081 17.806 0 54.414 30.35 104.704 78.194 131.015-45.454 79.673-79.019 224.057-79.019 283.62 0 83.115 68.665 150.727 153.031 150.727s153.003-67.612 153.003-150.727c0-59.563-33.564-203.947-79.019-283.62 47.844-26.311 78.194-76.601 78.194-131.015 0-4.267-0.199-8.59-0.569-12.914 93.611-2.162 233.444-45.141 284.814-74.354 35.413-20.139 60.729-52.651 71.282-91.534 10.581-38.884 5.148-79.502-15.275-114.375zM465.152 751.474c0 11.548-6.827 20.878-15.246 20.878-8.448 0-15.275-9.33-15.275-20.878v-83.513c0-11.52 6.827-20.878 15.275-20.878 8.42 0 15.246 9.358 15.246 20.878v83.513zM510.578 497.124c-57.372 0-104.050-45.966-104.050-102.485s46.677-102.485 104.050-102.485c57.372 0 104.050 45.966 104.050 102.485s-46.677 102.485-104.050 102.485zM879.332 255.033l-72.078 34.503c-9.956 4.779-21.931 0.683-26.766-9.131-4.836-9.785-0.711-21.589 9.244-26.368l72.107-34.503c2.816-1.337 5.803-1.991 8.732-1.991 7.424 0 14.564 4.096 18.034 11.122 4.836 9.813 0.683 21.618-9.273 26.368zM510.578 341.504c-29.753 0-53.959 23.836-53.959 53.134s24.206 53.134 53.959 53.134c29.724 0 53.931-23.836 53.931-53.134s-24.206-53.134-53.931-53.134zM910.194 390.798c0 0.114 0.028 0.199 0.028 0.313 0 143.9-76.601 269.596-190.976 339.57 4.124 22.073 7.282 42.695 9.244 60.843 142.108-76.999 238.62-227.442 238.62-400.412 0-6.827-0.74-13.483-1.024-20.252-17.010 6.656-35.812 13.369-55.893 19.94zM113.778 391.111c0-2.361 0.313-4.636 0.341-6.997-20.053-6.571-38.827-13.284-55.865-19.94-0.54 8.96-1.365 17.835-1.365 26.937 0 171.378 94.834 320.484 234.78 398.108 2.020-18.233 5.205-38.77 9.358-60.786-112.327-70.428-187.25-194.958-187.25-337.323zM512-7.111c70.94 0 137.415 18.773 195.1 51.285 16.555-14.052 32.455-26.852 47.076-37.888-70.172-44.288-153.060-70.286-242.176-70.286-87.097 0-168.192 24.917-237.369 67.328 14.677 11.292 30.379 24.121 46.706 38.144 56.633-30.948 121.572-48.583 190.663-48.583z" />
<glyph unicode="&#xe928;" glyph-name="message" d="M1024.236 588.603c-17.172-18.511-36.549-34.737-57.108-48.758-95.311-63.33-191.252-127.212-284.357-193.378-47.892-34.737-107.284-77.351-169.511-77.351h-1.182c-62.228 0-121.541 42.614-169.511 77.351-93.105 66.718-188.967 130.048-283.727 193.378-21.189 14.021-40.566 30.247-57.738 48.758v-444.967c0-49.31 41.118-89.718 91.372-89.718h840.389c50.255 0 91.372 40.409 91.372 89.718v444.967zM1024.236 753.31c0 49.388-41.669 89.718-91.372 89.718h-840.389c-61.046 0-91.372-47.104-91.372-102.006 0-50.964 57.738-114.294 98.225-141.233 88.537-60.495 178.097-121.068 266.634-182.114 37.1-25.206 99.879-76.8 146.117-76.8h1.182c46.238 0 109.017 51.594 146.117 76.8 88.537 61.046 178.176 121.62 267.185 182.114 50.255 34.186 97.674 90.821 97.674 153.521z" />
<glyph unicode="&#xe929;" glyph-name="performance" d="M512-64c-282.112 0-512 229.888-512 512s229.888 512 512 512c282.112 0 512-229.888 512-512s-229.888-512-512-512zM512 874.468c-235.861 0-426.439-190.606-426.439-426.468s190.578-426.439 426.439-426.439c233.984 0 426.439 190.578 426.439 426.439 0 233.984-190.578 426.468-426.439 426.468zM768 378.34c-3.499 0-5.234 0-8.704 0-17.408 1.735-29.611 19.172-26.14 36.58 1.764 17.408 19.172 29.611 36.58 26.112 17.408-1.735 29.611-17.408 26.112-34.816-1.735-13.938-13.909-24.377-27.847-27.876zM757.532 524.629c-3.47-1.735-5.205-1.735-8.704-1.735-13.909-1.735-27.847 5.234-33.081 17.408-6.969 15.673 0 34.844 15.673 41.785 15.673 6.969 34.844 0 41.813-15.673 6.94-15.673 0-34.816-15.701-41.785zM727.95 258.19c-5.234-5.234-12.203-10.468-19.172-10.468-8.704-1.735-17.408 1.735-26.112 6.969-13.938 12.203-13.938 31.346-3.499 45.284 12.203 13.938 33.109 13.938 45.284 3.47 13.938-12.174 13.938-31.317 3.499-45.255zM585.131 475.876c8.704-22.642 6.969-47.019-6.969-69.66-24.377-36.58-73.131-48.782-109.71-24.377-36.551 24.377-48.754 73.131-24.377 109.71 13.938 22.642 36.58 34.816 60.956 36.58l121.913 160.199c10.439 12.203 29.611 15.673 43.52 6.969 13.938-8.704 19.172-27.876 10.468-41.785l-95.801-177.636zM527.673 474.14c-13.938 8.704-34.844 5.205-43.548-10.468-8.704-13.938-5.205-34.816 10.468-43.52 13.909-8.732 34.816-5.234 43.52 10.439 10.468 15.673 5.234 34.816-10.439 43.548zM590.364 716.203l-43.548-57.486c-13.909 1.764-29.582 3.499-45.255 3.499-20.907 0-41.813-5.234-62.692-12.203-20.907-6.969-38.315-17.408-55.751-29.611-17.408-12.174-33.081-27.847-45.255-45.255-3.499-3.499-6.969-8.732-8.732-13.938l-5.205-1.764-1.764-1.735-5.205-8.704c-5.234-8.704-8.704-19.143-12.203-27.847-6.969-20.907-12.174-41.813-13.938-62.692-1.735-20.907 0-43.548 5.234-64.455s13.938-41.785 24.377-60.956c8.704-15.673 17.436-26.112 29.611-40.050 12.203-12.174 13.938-31.346 1.735-45.284-5.205-6.969-12.174-10.439-20.878-10.439-8.732-1.735-19.172 1.735-26.14 6.969-15.673 15.673-31.346 34.816-43.52 53.988-15.673 24.377-26.14 50.489-33.109 78.364s-10.439 55.723-8.704 85.333c1.735 27.847 6.969 57.458 15.673 83.598 5.234 13.909 10.468 26.112 17.408 40.050l5.234 8.704 1.735 1.735 1.764 3.499 3.47 5.205c3.47 6.969 6.969 12.203 12.203 17.436 17.408 22.642 36.551 43.52 60.956 60.928 22.613 17.436 48.754 31.374 74.866 41.813 27.876 10.439 55.723 15.673 85.333 17.408s57.486 0 87.068-6.969c6.969-1.735 12.203-3.47 19.172-5.234-5.234-3.47-10.468-8.704-13.938-13.909z" />
<glyph unicode="&#xe92a;" glyph-name="phone1" d="M372.163 399.995l188.17 188.334c38.83 38.748 99.369 41.779 142.131 9.994 5.407-1.311 10.486-3.604 14.664-7.782l46.449-46.449c30.065-30.065 78.807-30.065 108.954 0l129.352 129.434c30.065 29.983 30.065 78.725 0 108.954l-92.979 92.815c-115.098 115.18-302.531 115.18-417.71 0l-406.077-405.996c-115.098-115.18-115.098-302.694 0-417.71l92.897-92.979c30.147-30.147 78.807-30.147 108.954 0l129.352 129.434c30.147 29.901 30.147 78.807 0 108.872l-46.449 46.449c-4.178 4.178-6.39 9.257-7.782 14.664-31.867 42.68-28.754 103.219 10.076 141.967z" />
<glyph unicode="&#xe92b;" glyph-name="skype" horiz-adv-x="1019" d="M779.356 337.034c0-135.171-130.063-197.727-254.86-197.727-149.317 0-274.115 66.564-274.115 148.452 0 36.622 20.59 69.865 67.035 69.865 71.043 0 77.645-102.479 200.478-102.479 58.391 0 96.192 25.934 96.192 59.884 0 42.595-36.465 49.275-95.563 63.892l-96.899 23.969c-96.899 23.341-171.243 63.263-171.243 175.094 0 135.093 133.364 184.996 248.259 184.996 125.426 0 252.188-49.903 252.188-126.448 0-38.587-25.855-72.537-69-72.537-64.442 0-66.407 76.545-170.614 76.545-58.391 0-95.563-15.953-95.563-51.239 0-38.665 37.801-47.31 88.254-59.255l69-15.953c94.305-21.297 206.45-61.299 206.45-177.058zM1020.306 192.589c0 58.548-19.883 112.459-53.125 155.761 6.68 31.907 10.609 65.857 10.609 99.807 0 258.947-209.044 468.619-467.205 468.619-33.871 0-67.743-4.008-99.571-10.688-43.145 33.321-96.899 53.283-155.368 53.283-140.672 0-254.86-114.503-254.86-255.646 0-58.548 19.961-112.459 53.125-155.683-6.68-31.985-10.609-65.935-10.609-99.885 0-258.947 209.044-468.541 467.283-468.541 33.793 0 67.664 3.929 99.492 10.609 43.145-33.243 96.977-53.204 155.368-53.204 140.672 0 254.86 114.424 254.86 255.568z" />
<glyph unicode="&#xe92c;" glyph-name="tank" d="M1023.886 87.58c0-74.724-62.009-137.358-136.533-137.358l-750.791 0.256c-74.354 0.256-136.562 62.293-136.562 136.875l0.341 515.243c0.085 49.806 27.79 94.123 68.295 118.13v87.41h-2.702v0.256c-36.636 1.479-65.934 31.488-65.934 68.58 0 37.063 29.298 67.1 65.934 68.523v0.284h122.425c37.916 0 68.636-30.834 68.636-68.807 0-38.030-30.72-68.836-68.636-68.836v-68.409h186.652l0.142 68.921c0.142 74.638 62.094 137.131 136.533 137.131l375.296-0.228c74.553 0 137.017-62.18 137.017-136.903 0-1.536-0.114-721.067-0.114-721.067zM151.154 661.504c-34.304 0-65.678-31.346-65.678-65.65l-0.313-494.421c0-34.304 31.346-65.65 65.678-65.65l722.204-0.228c34.304 0 65.678 31.346 65.678 65.65l0.085 496.412c-1.166 33.508-31.915 63.659-65.536 63.659l-722.119 0.228zM955.733 808.647c0 35.755-32.626 68.437-68.295 68.437l-375.751 0.256c-35.669 0-68.267-32.683-68.267-68.466v-0.455c0-35.755 32.597-68.437 68.267-68.437h0.484v-0.256h375.268c35.669 0 68.295 32.683 68.295 68.466v0.455zM777.899 100.096l-74.724 68.21c-10.524 9.586-10.468 25.23 0.114 34.901 10.581 9.643 27.733 9.7 38.258 0.114l74.724-68.181c10.496-9.614 10.468-25.287-0.114-34.958-10.581-9.643-27.762-9.671-38.258-0.085zM741.547 493.938c-10.524-9.614-27.676-9.557-38.258 0.114-10.581 9.643-10.638 25.316-0.114 34.901l74.724 68.21c10.496 9.586 27.676 9.529 38.229-0.114 10.581-9.671 10.638-25.316 0.142-34.901l-74.724-68.21zM610.731 234.325h-197.803c-23.723 0-43.093 19.541-43.093 43.435v140.857c0 23.893 19.371 43.435 43.093 43.435h197.803c23.723 0 43.122-19.541 43.122-43.435v-140.857c0-23.893-19.399-43.435-43.122-43.435zM597.333 405.333h-170.667v-113.778h170.667v113.778zM281.116 493.938l-74.724 68.21c-10.496 9.586-10.468 25.23 0.114 34.901 10.581 9.643 27.733 9.7 38.258 0.114l74.724-68.21c10.496-9.586 10.468-25.259-0.114-34.901-10.581-9.671-27.762-9.728-38.258-0.114zM281.116 203.321c10.496 9.586 27.676 9.529 38.229-0.114 10.581-9.671 10.638-25.316 0.142-34.901l-74.724-68.21c-10.524-9.586-27.676-9.557-38.258 0.085-10.581 9.671-10.61 25.344-0.114 34.958l74.724 68.181z" />
<glyph unicode="&#xe92d;" glyph-name="check" horiz-adv-x="1342" d="M1343.633 800.297l-865.427-865.427-479.562 479.562 159.816 159.816 319.746-319.633 705.498 705.611 159.929-159.929z" />
<glyph unicode="&#xe92e;" glyph-name="quote_2" horiz-adv-x="1263" d="M493.558 960.388c-39.164-24.023-87.841-54.888-145.932-92.791-58.188-37.805-113.125-83.861-164.956-138.070-50.569-52.996-93.519-113.271-128.898-180.729-35.379-67.506-53.093-142.244-53.093-224.212 0-116.037 23.392-209.75 70.127-281.042 46.784-71.243 124.482-106.865 233.191-106.865 69.496 0 124.19 23.052 163.986 69.205 39.795 46.104 59.741 95.703 59.741 148.795 0 74.543-22.47 131.082-67.312 169.664-44.891 38.533-106.477 57.849-184.854 57.849h-90.995c7.571 65.468 20.868 118.998 39.795 160.588 18.976 41.542 46.153 81.241 81.532 119.046 37.903 40.281 75.174 72.699 111.864 97.304 36.641 24.557 84.638 53.821 144.088 87.889l-68.283 113.368zM1195.023 960.388c-39.213-24.023-87.889-54.888-145.981-92.791-58.14-37.805-113.125-83.861-164.956-138.070-50.569-52.996-93.519-113.271-128.898-180.729-35.379-67.506-53.093-142.244-53.093-224.212 0-116.037 23.392-209.75 70.176-281.042 46.735-71.243 124.433-106.865 233.142-106.865 69.496 0 124.19 23.052 163.986 69.205 39.795 46.104 59.741 95.703 59.741 148.795 0 74.543-22.47 131.082-67.312 169.664-44.891 38.533-106.477 57.849-184.854 57.849h-90.995c7.619 65.468 20.529 118.706 38.873 159.618 18.296 40.96 45.813 80.949 82.454 120.017 37.951 40.281 75.174 72.699 111.864 97.304 36.641 24.557 84.638 53.821 144.088 87.889l-68.234 113.368z" />
<glyph unicode="&#xe92f;" glyph-name="calculator-boat" horiz-adv-x="805" d="M560.762-64c-134.656 0-243.81 109.154-243.81 243.81s109.154 243.81 243.81 243.81c134.656 0 243.81-109.154 243.81-243.81s-109.154-243.81-243.81-243.81zM560.762 374.857c-107.715 0-195.048-87.333-195.048-195.048s87.333-195.048 195.048-195.048c107.715 0 195.048 87.333 195.048 195.048s-87.333 195.048-195.048 195.048zM643.925 186.661c12.556-11.459 18.822-27.672 18.822-48.64s-6.997-38.278-21.016-51.931c-14.019-13.653-32.744-21.821-56.149-24.503v-25.6h-38.766v26.697c-30.964 4.876-59.49 18.895-85.577 42.057l34.011 41.326c19.017-16.579 36.206-27.185 51.566-31.817v54.491c-25.6 6.583-44.373 15.409-56.32 26.502s-17.92 27.063-17.92 47.909c0 20.846 6.827 38.034 20.48 51.566s31.573 21.65 53.76 24.332v17.92h38.766v-18.651c24.381-3.413 48.64-13.531 72.777-30.354l-29.989-43.154c-15.36 10.971-29.623 18.286-42.789 21.943v-52.663c26.331-6.827 45.787-15.97 58.344-27.429zM585.582 112.421c12.434 3.901 18.651 11.459 18.651 22.674 0 5.12-1.341 9.387-4.023 12.8s-7.558 6.583-14.629 9.509v-44.983zM546.816 268.215c-10.484-3.657-15.726-10.362-15.726-20.114s5.242-17.189 15.726-22.309v42.423zM633.905 911.238h-585.143v-780.19h199.168c2.609-16.701 6.242-33.036 11.337-48.762h-210.505c-26.941 0-48.762 21.821-48.762 48.762v780.19c0 26.941 21.821 48.762 48.762 48.762h585.143c26.941 0 48.762-21.821 48.762-48.762v-438.857c-15.628 6.534-31.988 11.581-48.762 15.555v423.302zM246.345 218.161c-1.512 3.17-2.536 6.632-2.536 10.411v24.381c0 10.021 6.071 18.578 14.702 22.333-5.803-18.359-9.777-37.498-12.166-57.125zM292.571 448h-24.381c-13.458 0-24.381 10.923-24.381 24.381v24.381c0 13.458 10.923 24.381 24.381 24.381h24.381c13.458 0 24.381-10.923 24.381-24.381v-24.381c0-13.458-10.923-24.381-24.381-24.381zM292.571 643.048c13.458 0 24.381-10.923 24.381-24.381v-24.381c0-13.458-10.923-24.381-24.381-24.381h-24.381c-13.458 0-24.381 10.923-24.381 24.381v24.381c0 13.458 10.923 24.381 24.381 24.381h24.381zM121.905 618.667c0 13.458 10.923 24.381 24.381 24.381h24.381c13.458 0 24.381-10.923 24.381-24.381v-24.381c0-13.458-10.923-24.381-24.381-24.381h-24.381c-13.458 0-24.381 10.923-24.381 24.381v24.381zM121.905 496.762c0 13.458 10.923 24.381 24.381 24.381h24.381c13.458 0 24.381-10.923 24.381-24.381v-24.381c0-13.458-10.923-24.381-24.381-24.381h-24.381c-13.458 0-24.381 10.923-24.381 24.381v24.381zM146.286 277.333h24.381c13.458 0 24.381-10.923 24.381-24.381v-24.381c0-13.458-10.923-24.381-24.381-24.381h-24.381c-13.458 0-24.381 10.923-24.381 24.381v24.381c0 13.458 10.923 24.381 24.381 24.381zM121.905 374.857c0 13.458 10.923 24.381 24.381 24.381h24.381c13.458 0 24.381-10.923 24.381-24.381v-24.381c0-13.458-10.923-24.381-24.381-24.381h-24.381c-13.458 0-24.381 10.923-24.381 24.381v24.381zM512 521.143h24.381c13.458 0 24.381-10.923 24.381-24.381-25.21 0-49.615-3.267-73.143-8.826v8.826c0 13.458 10.923 24.381 24.381 24.381zM487.619 618.667c0 13.458 10.923 24.381 24.381 24.381h24.381c13.458 0 24.381-10.923 24.381-24.381v-24.381c0-13.458-10.923-24.381-24.381-24.381h-24.381c-13.458 0-24.381 10.923-24.381 24.381v24.381zM121.905 740.571v73.143c0 13.458 10.923 24.381 24.381 24.381h390.095c13.458 0 24.381-10.923 24.381-24.381v-73.143c0-13.458-10.923-24.381-24.381-24.381h-390.095c-13.458 0-24.381 10.923-24.381 24.381zM390.095 521.143h24.381c13.458 0 24.381-10.923 24.381-24.381v-24.381c-16.262-6.778-31.695-15.092-46.47-24.381h-2.292c-13.458 0-24.381 10.923-24.381 24.381v24.381c0 13.458 10.923 24.381 24.381 24.381zM365.714 618.667c0 13.458 10.923 24.381 24.381 24.381h24.381c13.458 0 24.381-10.923 24.381-24.381v-24.381c0-13.458-10.923-24.381-24.381-24.381h-24.381c-13.458 0-24.381 10.923-24.381 24.381v24.381zM243.81 350.476v24.381c0 13.458 10.923 24.381 24.381 24.381h24.381c11.337 0 20.456-7.899 23.186-18.408-13.848-16.847-25.844-35.23-36.011-54.735h-11.557c-13.458 0-24.381 10.923-24.381 24.381z" />
<glyph unicode="&#xe930;" glyph-name="accident" horiz-adv-x="693" d="M390.957 176.64v-196.066c0-24.606-19.968-44.574-44.604-44.574s-44.604 19.968-44.604 44.574v196.066c-170.225 4.698-301.749 36.081-301.749 74.029 0 5.030 1.416 6.445 5.783 13.884 26.955 46.2 48.911 94.208 65.656 143.42 181.609-36.051 367.736-36.051 549.105-0.12 16.233-47.435 37.406-93.696 63.398-138.21 7.56-12.89 8.764-13.824 8.764-18.974 0-37.948-131.524-69.301-301.749-74.029zM95.262 494.17c10.752 50.507 16.233 101.888 16.233 153.54 0 90.112 70.987 166.069 167.966 189.591v55.808c0 36.954 29.967 66.891 66.891 66.891 36.954 0 66.891-29.937 66.891-66.891v-57.254c97.28-25.51 167.966-102.641 167.966-193.837 0-49.784 5.24-99.298 15.541-147.968-164.834-31.684-336.685-31.654-501.489 0.12z" />
<glyph unicode="&#xe931;" glyph-name="exterior" horiz-adv-x="1086" d="M1075.479-30.239c-43.008-42.884-120.677-42.884-163.747-0.031-8.223 8.161-19.146 12.66-30.72 12.66h-0.062c-11.636 0-22.528-4.499-30.751-12.66-45.087-44.87-118.567-44.87-163.716-0.031-17.005 16.912-44.653 16.912-61.626 0-45.118-44.839-118.598-44.839-163.716 0-16.943 16.88-44.591 16.943-61.626 0-21.814-21.721-50.859-33.699-81.765-33.73 0 0 0 0-0.062 0-29.944 0-58.151 11.264-79.748 31.775l-2.079 2.017c-17.005 16.849-44.591 16.849-61.595-0.062-43.722-43.442-119.994-43.442-163.716 0.031-14.088 14.026-14.088 36.771 0 50.797 14.088 13.964 36.957 13.995 51.045-0.031 16.415-16.384 45.18-16.384 61.626 0 44.435 44.218 116.426 44.901 161.668 1.955l2.079-1.986c16.384-16.322 45.056-16.353 61.502 0 45.087 44.87 118.567 44.932 163.716 0.062 17.005-16.912 44.622-16.912 61.626 0 45.118 44.839 118.598 44.839 163.716 0 17.036-16.943 44.653-16.912 61.626-0.031 21.876 21.752 50.921 33.699 81.765 33.699 0.062 0 0.093 0 0.124 0 30.875 0 59.92-11.947 81.765-33.73 16.136-16.012 45.459-16.043 61.564 0 14.088 14.057 36.957 14.057 51.045 0.062 14.15-13.995 14.15-36.74 0.062-50.766zM756.643 74.116c-63.736 47.135-153.228 44.777-213.644-8.533-64.078 56.506-161.14 56.506-225.28 0.031-31.558 27.834-71.184 41.829-110.964 42.201l-72.145 160.209c-4.096 8.688-3.475 18.835 1.676 26.934 5.182 8.099 14.15 13.002 23.8 13.002h211.44v616.138c0 19.828 16.167 35.902 36.119 35.902s36.088-16.074 36.088-35.902v-42.574c173.801-125.735 283.12-314.306 299.753-526.057h-278.621v-47.383l461.731-0.093c11.512 0 21.876-7.013 26.159-17.687 4.251-10.643 1.552-22.807-6.858-30.72l-189.254-185.468z" />
<glyph unicode="&#xe932;" glyph-name="interior" d="M979.607 492.393h-62.193c-8.584 79.33-39.936 151.853-87.371 210.884l44.002 43.972c17.318 17.348 17.318 45.448 0 62.795-17.348 17.318-45.448 17.318-62.795 0l-43.972-44.002c-59.031 47.465-131.554 78.788-210.884 87.371v62.193c0 24.516-19.878 44.393-44.393 44.393s-44.393-19.878-44.393-44.393v-62.163c-79.33-8.614-151.853-39.936-210.884-87.401l-43.972 44.002c-17.348 17.348-45.448 17.348-62.795 0-17.318-17.348-17.348-45.448 0-62.795l44.002-43.972c-47.465-59.031-78.788-131.554-87.401-210.884h-62.163c-24.516 0-44.393-19.878-44.393-44.393s19.878-44.393 44.393-44.393h62.163c8.614-79.33 39.936-151.853 87.401-210.884l-44.002-43.972c-17.348-17.348-17.348-45.448 0-62.795 8.674-8.674 20.028-13.011 31.383-13.011 11.384 0 22.739 4.337 31.413 13.011l43.972 44.002c59.031-47.465 131.554-78.788 210.884-87.401v-62.163c0-24.516 19.878-44.393 44.393-44.393s44.393 19.878 44.393 44.393v62.193c79.33 8.584 151.853 39.906 210.884 87.371l43.972-44.002c8.674-8.674 20.028-13.011 31.413-13.011 11.354 0 22.709 4.337 31.383 13.011 17.348 17.348 17.348 45.448 0 62.795l-44.002 43.972c47.465 59.031 78.788 131.554 87.401 210.884h62.163c24.516 0 44.393 19.878 44.393 44.393s-19.878 44.393-44.393 44.393zM827.994 492.393h-124.055c-4.939 21.534-13.463 41.713-24.847 59.934l87.733 87.703c32.768-43.279 53.73-93.847 61.169-147.637zM704.030 702.825l-87.703-87.733c-18.221 11.384-38.4 19.908-59.934 24.847v124.055c53.79-7.439 104.358-28.401 147.637-61.169zM467.607 763.994v-124.055c-21.534-4.939-41.713-13.463-59.934-24.847l-87.733 87.733c43.309 32.768 93.877 53.73 147.667 61.169zM257.175 640.060l87.733-87.733c-11.384-18.221-19.908-38.4-24.847-59.934h-124.055c7.439 53.79 28.401 104.358 61.169 147.667zM196.006 403.607h124.055c4.939-21.534 13.463-41.713 24.847-59.934l-87.733-87.733c-32.768 43.309-53.73 93.877-61.169 147.667zM319.94 193.175l87.733 87.733c18.221-11.384 38.4-19.908 59.934-24.847v-124.055c-53.79 7.439-104.358 28.401-147.667 61.169zM556.393 132.006v124.055c21.534 4.939 41.713 13.463 59.934 24.847l87.703-87.733c-43.279-32.768-93.847-53.73-147.637-61.169zM766.825 255.94l-87.733 87.733c11.384 18.221 19.878 38.4 24.847 59.934h124.055c-7.439-53.79-28.401-104.358-61.169-147.667z" />
<glyph unicode="&#xe933;" glyph-name="depth-sounder-installation" d="M1021.824 601.632c-7.52-21.024-57.664-172.096-57.664-172.096s-23.552-60.736-83.2-60.736c-59.616 0-657.056 0-657.056 0l-218.976 210.912c0 0-16.8 20.224 11.776 20.224 28.512 0 194.848 0 194.848 0l99.936 127.36c0 0 3.168 12 17.408 7.808 14.272-4.224 456.352-113.248 456.352-113.248h229.056c0 0 15.136 0.8 7.52-20.224zM170.368 251.072l40.672 40.864c31.872-32 83.648-32 115.52 0l40.64-40.864c-54.24-54.496-142.56-54.496-196.832 0zM432.96 173.504c-43.872-44.032-102.144-68.256-164.192-68.256-62.016 0-120.352 24.224-164.224 68.256l40.736 40.864c32.992-33.152 76.832-51.424 123.488-51.424s90.528 18.304 123.52 51.424l40.672-40.864zM268.768 57.76c77.728 0 150.784 30.4 205.728 85.6l40.672-40.864c-65.824-66.080-153.344-102.496-246.4-102.496s-180.576 36.448-246.4 102.496l40.704 40.864c54.944-55.2 128-85.6 205.696-85.6z" />
<glyph unicode="&#xe934;" glyph-name="engine-repairs" d="M906.88 483.456c-35.712 21.344-77.376 32-118.976 32-34.112 0-67.52-7.52-97.696-21.376-16.128 37.056-44.96 67.648-80.768 86.080 1.696 61.856 35.456 117.312 89.248 148.608 16.64 9.504 34.496 16.64 52.32 20.128 32.16 7.136 57.12 32 63.072 64 5.92 32-7.168 62.816-35.712 80.608-61.824 40.256-143.936 63.968-232 66.336-67.744 2.4-130.816-22.464-179.584-67.52-47.616-45.024-73.76-104.32-73.76-169.44 0-79.072 39.616-149.472 99.712-192.928-21.984-28.928-35.104-64.8-35.104-103.328 0-3.232 0.096-6.336 0.288-9.44-26.208-14.016-55.648-21.376-85.12-21.376-30.912 0-61.824 8.288-89.184 23.648-16.672 9.472-30.944 21.344-44 35.584-15.52 17.792-36.896 27.264-59.52 27.264-42.848 0-78.528-33.184-79.712-75.872-3.584-73.44 17.856-157.6 59.488-233.408 44.032-80.576 127.264-131.584 216.512-131.584 40.448 0 80.896 10.656 115.36 30.88 68.96 39.648 110.592 109.44 117.856 182.944 7.040-0.928 14.112-1.28 21.344-1.28 33.632 0 65.216 9.792 91.904 26.752 53.312-32.096 86.56-89.664 86.56-151.552 0-18.976-3.52-37.984-8.32-55.712-8.352-24.864-4.736-50.976 10.72-72.32 15.456-21.28 39.232-33.152 64.224-33.152 13.056 0 24.992 3.52 36.896 9.472 66.592 34.336 127.296 93.632 173.696 168.256 35.68 58.080 46.432 128 29.696 192-15.456 62.816-54.752 114.912-109.44 145.728v0zM530.912 323.584c-56.512 0-103.424 46.656-103.424 103.040 0 56.288 46.912 103.008 103.424 103.008 56.576 0 103.456-46.72 103.456-103.008 0-56.384-46.88-103.040-103.456-103.040v0z" />
<glyph unicode="&#xe935;" glyph-name="fuel-changes" horiz-adv-x="832" d="M721.056-64h-610.112c-61.28 0-110.944 50.944-110.944 113.792v621.152c0 36.736 22.912 69.344 56.896 80.96l-36.512 112.32 135.808 46.432 36.512-112.32 35.232 12.032 37.44 96c12.704 32.576 43.008 53.632 77.248 53.632h378.432c61.28 0 110.944-50.944 110.944-113.76v-796.448c0-62.848-49.664-113.792-110.944-113.792zM121.12 838.688l-30.592-10.464 18.976-58.336 30.592 10.464-18.976 58.336zM342.624 903.104c-11.424 0-21.504-7.008-25.76-17.856l-26.304-67.456h174.176c22.080 0 43.232 8.96 58.848 24.992l58.816 60.32h-239.776zM748.8 846.24c0 15.68-12.448 28.416-27.744 28.416h-48.736l-89.92-92.224c-31.424-32.224-73.216-49.984-117.664-49.984h-201.632l-179.904-61.504v-621.152c0-15.68 12.448-28.448 27.744-28.448h610.112c15.296 0 27.744 12.768 27.744 28.448v796.448zM462.592 248.896h-135.328l-110.56-158.752-45.152 33.056 133.504 191.68v138.784l-154.784 113.408 32.256 46.304 186.88-136.928h135.328l110.56 158.752 45.12-33.056-133.472-191.712v-138.784l154.784-113.376-32.256-46.304-186.88 136.928zM471.456 419.552h-110.912v-113.76h110.912v113.76z" />
<glyph unicode="&#xe936;" glyph-name="marine-engine-service" horiz-adv-x="960" d="M905.984 629.888l-82.304-168.512-77.952 11.008-60.064-125.92v-381.952l-164.64 112.352v385.408h-137.184v-13.824c0-22.912-18.432-41.504-41.152-41.504s-41.152 0-41.152 0v96.8c0 22.88 18.432 41.472 41.152 41.472h69.888c-18.592 22.24-34.176 49.76-29.6 82.944l3.584 26.56-363.648 61.312c-14.976 2.496-25.056 16.768-22.56 31.84 2.496 15.040 16.64 25.216 31.584 22.688l362.112-61.024 18.944 139.872c9.632 66.016 23.616 110.592 109.76 110.592h284.64c76.512 0 104.608-84.672 113.184-110.624 8.544-25.92 39.424-112.32 39.424-112.32v-81.248l-54.016-25.92zM834.592 689.376l-351.584 60.416c-7.456 1.312-14.56-3.776-15.84-11.264-1.28-7.552 3.776-14.688 11.2-16l351.616-60.416c7.456-1.312 14.528 3.776 15.84 11.264 1.248 7.552-3.744 14.688-11.232 16zM729.216 171.904v82.976c0 35.264 18.432 69.984 41.152 69.984 22.752 0 50.752-39.36 41.184-69.984l-29.152-100.256c0-0.16 0.032-0.256 0.032-0.416 79.712-8.192 138.848-27.936 138.848-51.040 0-20.16-45.216-37.728-109.728-47.36v-49.824c0-39.776-18.432-69.984-41.184-69.984-22.72 0-51.904 49.792-41.152 69.984l24.224 43.776c-16.704-1.056-33.952-1.696-51.648-1.696v110.272c10.24 0 17.856-0.256 27.808-0.64 0.096 4.832-0.384 9.152-0.384 14.208z" />
</font>
</defs>
</svg>
